Loading...
Error

Скачать Однажды в Америке / Once Upon a Time in America (Серджио Леоне / Sergio Leone) [1984, Драма, Криминал, BDRip] [Extended cut] 2х[AVO] + [Original Eng] торрент без регистрации

 
Статистика раздачи
Размер:  5,94 GB   |    Скачан:  134 раза
Сидов:  1  [  0 KB/s  ]  
 
Автор Сообщение

leon030982

[] 

Однажды в Америке / Once Upon a Time in America / Расширенная версия / Extended cut


«As boys, they made a pact to share their fortunes, their loves, their lives. As men, they shared a dream to rise from poverty to power. Forging an empire built on greed, violence and betrayal, their dream would end as a mystery that refuse to die.»
Страна: США, Италия
Жанр: Драма, Криминал
Год выпуска: 1984
Продолжительность: 04:11:00
Перевод: Авторский (одноголосый закадровый) Ю.Сербин (новый)
Перевод 2: Авторский (одноголосый закадровый) Ю.Сербин (видеосервисовский)
Cубтитры: нет
Оригинальная аудиодорожка: Английский
Режиссер: Серджио Леоне / Sergio Leone
В ролях: Роберт Де Ниро /Robert De Niro/, Джеймс Вудс /James Woods/, Элизабет МакГоверн /Elizabeth McGovern/, Джо Пеши /Joe Pesci/, Берт Янг /Burt Young/, Тьюзди Уэлд /Tuesday Weld/, Трит Уильямс /Treat Williams/, Дэнни Айелло /Danny Aiello/, Ричард Брайт /Richard Bright/, Джеймс Хейден /James Hayden/, Уильям Форсайт /William Forsythe/, Дарлэнн Флюгел /Darlanne Fluegel/, Ларри Рэпп /Larry Rapp/, Скотт Тайлер /Scott Tiler/, Расти Джейкобс /Rusty Jacobs/, Брайан Блум /Brian Bloom/, Дженнифер Коннелли /Jennifer Connel
Описание: В бурные двадцатые годы, когда Америка веселилась под звуки джаза и каждый бродяга мечтал стать миллионером, в трущобах Нью-Йорка встретились несколько отчаянных парней. Убирая с дороги конкурентов, безжалостно карая предателей и нагло проворачивая хитроумные аферы, они стали королями преступного мира золотой эры «сухого закона». Они поклялись отдать жизнь друг за друга, зная, что самое главное для них — это дружба, долг и справедливость — не утопить в реках крови и бездонном океане денег. Спустя много лет судьба жестоко обошлась с легендарными гангстерами, заставив их исполнить свою клятву. Это случилось однажды в Америке…

Автор рипа: MECHANICAL ENGINEER
Исходник: ITA Blu-ray VC-1 DTS-HD MA 5.1-CtrlHD
Качество видео: BDRip
Формат видео: AVI
Видео: 720x400 (1.80:1), 24 fps, XviD build 65 ~2034 kbps avg, 0.29 bit/pixel
Аудио: 48 kHz, AC3 Dolby Digital, 3/2 (L,C,R,l,r) + LFE ch, ~448.00 kbps avg / Ю.Сербин (новый)
Аудио 2: 48 kHz, AC3 Dolby Digital, 3/2 (L,C,R,l,r) + LFE ch, ~448.00 kbps avg / Ю.Сербин (видеосервисовский) Отдельно
Аудио 3: 48 kHz, AC3 Dolby Digital, 3/2 (L,C,R,l,r) + LFE ch, ~448.00 kbps avg / Оригинальная Отдельно
Format : AVI
Format/Info : Audio Video Interleave
Format profile : OpenDML
File size : 4.36 GiB
Duration : 4h 11mn
Overall bit rate : 2 490 Kbps
Movie name : Однажды в Америке / Once Upon a Time in America (1984) [Extended cut]
Director : MECHANICAL ENGINEER (Blu-Ray ITA)
Writing application : VirtualDubMod 1.5.10.3 | www.virtualdub-fr.org || (build 2550/release)
Copyright : HQ-ViDEO
Comment : 17.01.2013
Video
ID : 0
Format : MPEG-4 Visual
Format profile : Advanced Simple@L5
Format settings, BVOP : Yes
Format settings, QPel : No
Format settings, GMC : No warppoints
Format settings, Matrix : Custom
Codec ID : XVID
Codec ID/Hint : XviD
Duration : 4h 11mn
Bit rate : 2 032 Kbps
Width : 720 pixels
Height : 400 pixels
Display aspect ratio : 16:9
Frame rate : 24.000 fps
Color space : YUV
Chroma subsampling : 4:2:0
Bit depth : 8 bits
Scan type : Progressive
Bits/(Pixel*Frame) : 0.294
Stream size : 3.56 GiB (82%)
Writing library : XviD 65
Audio
ID : 1
Format : AC-3
Format/Info : Audio Coding 3
Mode extension : CM (complete main)
Codec ID : 2000
Duration : 4h 11mn
Bit rate mode : Constant
Bit rate : 448 Kbps
Channel(s) : 6 channels
Channel positions : Front: L C R, Side: L R, LFE
Sampling rate : 48.0 KHz
Bit depth : 16 bits
Stream size : 804 MiB (18%)
Alignment : Split accross interleaves
Interleave, duration : 42 ms (1.00 video frame)
Interleave, preload duration : 500 ms
Выкуп перевода Ю. Сербина осуществлен в рамках сервиса Озвучивание. Спасибо меценатам: denismgn1987, markinscor, alb9925, Dabrynych, vic516 и около 40 участникам форума e180.



Скачать Однажды.в.Америке.Once.Upon.a.Time.in.America.(Серджио.Леоне.Sergio.Leone).[1984.Драма.Криминал.BDRip].[Extended.cut].2х[AVO].+.[Original.Eng].torrent без регистрации
Золото ЗОЛОТАЯ РАЗДАЧА! СКАЧАННОЕ НЕ ЗАСЧИТЫВАЕТСЯ! Золото
Дата: Зарегистрирован   [ Тип: внутренний ] Как тут cкачать?
MAGNET ссылка
MAGNET ссылка


Скачать .torrent

31 KB

Статус: проверено DHT
Скачан: торрент - 134 раз, раздача полностью - 0 раз
Размер: 5,94 GB
Оценка:  5 (Голосов: 1)
Поблагодарили: 3
Поделиться ссылкой на эту раздачу с друзьями:
В контактеFacebookОдноклассникиTwitterLivejournalМой МирLiveinternet
 

 
Показать сообщения:    


Вы не можете начинать темы
Вы не можете отвечать на сообщения
Вы не можете редактировать свои сообщения
Вы не можете удалять свои сообщения
Вы не можете голосовать в опросах
Вы не можете прикреплять файлы к сообщениям
Вы можете скачивать файлы