Loading...
Error

Скачать Трое мужчин и младенец / Three Men and a Baby (Леонард Нимой / Leonard Nimoy) [1987, драма, комедия, криминал, DVDRip] [Dub] (СВ-Дубль по заказу Российского телевидения) торрент без регистрации

 
Статистика раздачи
Размер:  1,28 GB   |    Скачан:  147 раз

Полного источника не было: 28 минут

 
Автор Сообщение

leon030982

[] 

Трое мужчин и младенец / Three Men and a Baby


Год выпуска: 1987
Страна: США
Жанр: драма, комедия, криминал
Продолжительность: 01:42:31
Перевод: Профессиональный (дублированный) СВ-Дубль по заказу Российского телевидения
Cубтитры: нет
Оригинальная аудиодорожка: нет

Режиссер: Леонард Нимой / Leonard Nimoy

В ролях: Том Селлек, Стив Гуттенберг, Тед Дансон, Нэнси Трэвис, Маргарет Колин, Александра Амини, Френсин Бирс, Лиза Блэр, Мишель Блэр, Филип Боско, Дерек де Линт, Дэйв Фоли, Пол Гилфойл

Описание: Жизнь троих преуспевающих друзей давно вошла в обыденное русло. Но однажды утром происходит событие, которое может присниться только в страшном сне: они находят на своем пороге шестимесячного младенца. С этого момента в их фешенебельной квартире все перевернулось вверх дном: друзья тщетно пытаются справиться с маленькой стихией и предлагают друг другу по тысяче долларов за то, чтобы сменить младенцу пеленки. Но вскоре они находят то, чего нельзя купить ни за какие деньги…

Сэмпл: http://multi-up.com/818198


Качество видео: DVDRip
Формат видео: AVI
Видео: 704x384 (1.83:1), 23.976 fps, XviD build 50 ~1515 kbps avg, 0.23 bit/pixel
Аудио: AC-3, 48.0 KHz, 256 Kbps, 1 channel, дубляж
Фильм является римейком французской картины . В 1990 году последовал сиквел (дубляжа на него нет). По слухам, планируется ещё один сиквел под названием "Трое мужчин и невеста" (видимо, под влиянием оригинальной картины). Кроме того, Адам Сэндлер заикался о римейке римейка с участием Криса Рока, Дэвида Спэйда и Роба Шнайдера.
В оригинальном сценарии Джек был пилотом, Пол Милнер играл более важную роль. К тому же, фильм планировался для взрослой аудитории с большим количеством ругани и враждой между Питером и Майклом.
Компания Pampers заплатила 50.000 долларов за рекламу своих подгузников.
Режиссер Леонард Нимой отсмотрел более 200 пар близнецов на роль Мэри, прежде чем выбрал Лизу и Мишель Блэр.
Актёр и режиссер Леонард Нимой выходец с планеты Вулкан, его настоящее имя Спок.
Фильм дублирован фирмой "СВ-Дубль" по заказу Российского телевидения в 1996 году. Перевод Сергей Мозговой, автор синхронного текста Галина Климова, режиссер дубляжа Сергей Шпаковский , роли дублировали Тимофей Спивак, Александр Воеводин, Владимир Аркадин, Ольга Голованова.
На 59-ой минуте на секунду проскакивает английская речь. Рекламная пауза, да.
В 1996 году телеканал РТР (ВГТРК) в рамках рубрики "Сделано в Голливуде" показал 30 или более картин, в основном, производства компании Silver Screen Partners (под эгидой Диснея). Все эти фильмы были продублированы на русский язык либо компанией "Св-Дубль", либо Союзом работников дубляжа. Впоследствии некоторые фильмы были официально изданы на ДВД-дисках с этими дубляжами. Но не все. Оставшиеся оцифровали те, кто в свое время записал их на кассеты (ну, навроде меня), еще несколько были записаны при повторных показах.
Вполне вероятно, что в списке не все фильмы.
Format : AVI
Format/Info : Audio Video Interleave
File size : 1.28 GiB
Duration : 1h 42mn
Overall bit rate : 1 781 Kbps
Writing application : VirtualDubModRus 1.5.10.2 (build 2542/release)
Writing library : VirtualDubMod build 2542/release
Video
ID : 0
Format : MPEG-4 Visual
Format profile : Advanced Simple@L5
Format settings, BVOP : 1
Format settings, QPel : No
Format settings, GMC : No warppoints
Format settings, Matrix : Custom
Codec ID : XVID
Codec ID/Hint : XviD
Duration : 1h 42mn
Bit rate : 1 516 Kbps
Width : 704 pixels
Height : 384 pixels
Display aspect ratio : 16:9
Frame rate : 23.976 fps
Color space : YUV
Chroma subsampling : 4:2:0
Bit depth : 8 bits
Scan type : Progressive
Compression mode : Lossy
Bits/(Pixel*Frame) : 0.234
Stream size : 1.09 GiB (85%)
Writing library : XviD 1.2.1 (UTC 2008-12-04)
Audio
ID : 1
Format : AC-3
Format/Info : Audio Coding 3
Mode extension : CM (complete main)
Codec ID : 2000
Duration : 1h 42mn
Bit rate mode : Constant
Bit rate : 256 Kbps
Channel(s) : 1 channel
Channel positions : Front: C
Sampling rate : 48.0 KHz
Bit depth : 16 bits
Compression mode : Lossy
Stream size : 188 MiB (14%)
Alignment : Aligned on interleaves
Interleave, duration : 42 ms (1.00 video frame)
Interleave, preload duration : 512 ms



Скачать Трое.мужчин.и.младенец.Three.Men.and.a.Baby.(Леонард.Нимой.Leonard.Nimoy).[1987.драма.комедия.криминал.DVDRip].[Dub].(СВ-Дубль.по.заказу.Российского.телевидения).torrent без регистрации
Золото ЗОЛОТАЯ РАЗДАЧА! СКАЧАННОЕ НЕ ЗАСЧИТЫВАЕТСЯ! Золото
Дата: Зарегистрирован   [ Тип: внутренний ] Как тут cкачать?
MAGNET ссылка
MAGNET ссылка


Скачать .torrent

13 KB

Статус: проверено DHT
Скачан: торрент - 147 раз, раздача полностью - 25 раз
Размер: 1,28 GB
Оценка:  - (Голосов: 0)
Поблагодарили: 2
Поделиться ссылкой на эту раздачу с друзьями:
В контактеFacebookОдноклассникиTwitterLivejournalМой МирLiveinternet
 

 
Показать сообщения:    


Вы не можете начинать темы
Вы не можете отвечать на сообщения
Вы не можете редактировать свои сообщения
Вы не можете удалять свои сообщения
Вы не можете голосовать в опросах
Вы не можете прикреплять файлы к сообщениям
Вы можете скачивать файлы