Loading...
Error

/ Once Upon a Time in America ( / Sergio Leone) [1984, , , BDRip] [Extended cut] 2[AVO] + [VO] + Original Eng + Sub (Rus, Eng)

 
4,94 GB   |    :  167
1  [  0 KB/s  ]  
 

leon030982

[] 

/ Once Upon a Time in America

/ Extended cut
As boys, they made a pact to share their fortunes, their loves, their lives. As men, they shared a dream to rise from poverty to power. Forging an empire built on greed, violence and betrayal, their dream would end as a mystery that refuse to die.
: ,
: ,
: 1984
: 04:11:00
: ( ) . ()
2: ( ) . ()
3: . / kyberpunk
C: ,
:
: / Sergio Leone
: /Robert De Niro/, /James Woods/, /Elizabeth McGovern/, /Joe Pesci/, /Burt Young/, /Tuesday Weld/, /Treat Williams/, /Danny Aiello/, /Richard Bright/, /James Hayden/, /William Forsythe/, /Darlanne Fluegel/, /Larry Rapp/, /Scott Tiler/, /Rusty Jacobs/, /Brian Bloom/, /Jennifer Connell
: , , - . , , . , , , . , .

: MECHANICAL ENGINEER
: ITA Blu-ray
: BDRip
: AVI
: 720x400 (1.80:1), 24 fps, XviD build 65 ~1272 kbps avg, 0.18 bit/pixel
: 48 kHz, AC3 Dolby Digital, 3/2 (L,C,R,l,r) + LFE ch, ~384.00 kbps avg / . ()
: 2986.19 Mb (2/3 DVD5)
2: 48 kHz, AC3 Dolby Digital, 3/2 (L,C,R,l,r) + LFE ch, ~384.00 kbps avg / . ()
3: 48 kHz, AC3 Dolby Digital, 3/2 (L,C,R,l,r) + LFE ch, ~384.00 kbps avg . / kyberpunk
4: 48 kHz, AC3 Dolby Digital, 3/2 (L,C,R,l,r) + LFE ch, ~384.00 kbps avg /
: softsub (SRT), Russian, English : DJ3den

:

Format : AVI
Format/Info : Audio Video Interleave
Format profile : OpenDML
File size : 2.92 GiB
Duration : 4h 11mn
Overall bit rate : 1 663 Kbps
Movie name : / Once Upon a Time in America (1984) [Extended cut]
Director : MECHANICAL ENGINEER (Blu-Ray ITA)
Writing application : VirtualDubMod 1.5.10.3 | www.virtualdub-fr.org || (build 2550/release)
Copyright : HQ-ViDEO
Comment : 19.01.2013
Video
ID : 0
Format : MPEG-4 Visual
Format profile : Advanced Simple@L5
Format settings, BVOP : Yes
Format settings, QPel : No
Format settings, GMC : No warppoints
Format settings, Matrix : Custom
Codec ID : XVID
Codec ID/Hint : XviD
Duration : 4h 11mn
Bit rate : 1 269 Kbps
Width : 720 pixels
Height : 400 pixels
Display aspect ratio : 16:9
Frame rate : 24.000 fps
Color space : YUV
Chroma subsampling : 4:2:0
Bit depth : 8 bits
Scan type : Progressive
Bits/(Pixel*Frame) : 0.184
Stream size : 2.22 GiB (76%)
Writing library : XviD 65
Audio
ID : 1
Format : AC-3
Format/Info : Audio Coding 3
Mode extension : CM (complete main)
Codec ID : 2000
Duration : 4h 11mn
Bit rate mode : Constant
Bit rate : 384 Kbps
Channel(s) : 6 channels
Channel positions : Front: L C R, Side: L R, LFE
Sampling rate : 48.0 KHz
Bit depth : 16 bits
Stream size : 689 MiB (23%)
Alignment : Split accross interleaves
Interleave, duration : 42 ms (1.00 video frame)
Interleave, preload duration : 500 ms
. . : denismgn1987, markinscor, alb9925, Dabrynych, vic516 40 e180.



...Once.Upon.a.Time.in.America.(..Sergio.Leone).[1984...BDRip].[Extended.cut].2[AVO].+.[VO].+.Original.Eng.+.Sub.(Rus.Eng).torrent
  ! ! 
:   [ : ] c?
MAGNET
MAGNET


.torrent

26 KB

: DHT
: - 167 , - 67
: 4,94 GB
5 (: 2)
: 2
:
 FacebookTwitterLivejournal Liveinternet
 

 
: