Loading...
Error

Скачать Клан Сопрано / The Sopranos (Полный 1-ый сезон) (Тимоти Ван Паттен, Джон Паттерсон, Аллен Култер) [1999, драма, криминал, BDRip] [AVO] (Ю. Сербин) торрент без регистрации

 
Статистика раздачи
Размер:  8,89 GB   |    Скачан:  399 раз
Сидов:  1  [  0 KB/s  ]  
 
Автор Сообщение

leon030982

[] 

Клан Сопрано (Семья Сопрано) / The Sopranos
Сезон 1

Год выпуска: 1999
Страна: США
Жанр: драма, криминал
Продолжительность: 13х~00:55:00

Перевод: Авторский (одноголосый закадровый) - Ю. Сербин

Русские субтитры: нет

Режиссёр: Тимоти Ван Паттен, Джон Паттерсон, Аллен Култер

В ролях: Джеймс Гандольфини, Иди Фалько, Джэми-Линн Сиглер, Майкл Империоли, Лоррейн Бракко, Тони Сирико, Роберт Айлер, Стив Ван Зандт, Доминик Кьянезе, Аида Туртурро

Описание: Повседневная жизнь современного Крестного отца: его мысли - стремительны, действия - решительны, а юмор - черен. Мафиозный босс Северного Джерси Тони Сопрано успешно справляется с проблемами «Семьи».
Но вот собственная семья немного подкачала: дети от рук отбились, брак - под угрозой, мамаша - пилит. Он надеется на помощь психиатра, но как тому рассказать обо всех своих проблемах, если связан «Омертой» - обетом молчания, нарушать который нельзя под страхом смерти?



Сэмпл

Качество: BDRip
Формат: AVI
Видео кодек: XviD
Аудио кодек: AC3
Видео: 720x400(1:80:1), 23.976 fps, XviD build 65 ~1572 kbps avg, 0.23 bit/pixel
Аудио : 48 kHz, AC3 Dolby Digital, 3/2 (L,C,R,l,r) + LFE ch, ~384 kbps avg (Ю. Сербин)

E:\INTERNET\The.Sopranos\The.Sopranos.S01E01.BluRay.Rus.Sponsored.avi
General
Complete name : E:\INTERNET\The.Sopranos\The.Sopranos.S01E01.BluRay.Rus.Sponsored.avi
Format : AVI
Format/Info : Audio Video Interleave
File size : 705 MiB
Duration : 1h 0mn
Overall bit rate : 1 641 Kbps
Writing application : VirtualDubMod 1.5.10.2 (build 2540/release)
Writing library : VirtualDubMod build 2540/release
Video #0
ID : 0
Format : MPEG-4 Visual
Format profile : Advanced Simple@L5
Format settings, BVOP : 2
Format settings, QPel : No
Format settings, GMC : No warppoints
Format settings, Matrix : Default (MPEG)
Codec ID : XVID
Codec ID/Hint : XviD
Duration : 1h 0mn
Bit rate : 1 248 Kbps
Width : 720 pixels
Height : 400 pixels
Display aspect ratio : 16:9
Frame rate : 23.976 fps
Color space : YUV
Chroma subsampling : 4:2:0
Bit depth : 8 bits
Scan type : Progressive
Compression mode : Lossy
Bits/(Pixel*Frame) : 0.181
Stream size : 536 MiB (76%)
Writing library : XviD 1.2.1 (UTC 2008-12-04)
Audio #1
ID : 1
Format : AC-3
Format/Info : Audio Coding 3
Mode extension : CM (complete main)
Format settings, Endianness : Big
Codec ID : 2000
Duration : 1h 0mn
Bit rate mode : Constant
Bit rate : 384 Kbps
Channel(s) : 6 channels
Channel positions : Front: L C R, Side: L R, LFE
Sampling rate : 48.0 KHz
Bit depth : 16 bits
Compression mode : Lossy
Stream size : 165 MiB (23%)
Alignment : Split accross interleaves
Interleave, duration : 42 ms (1.00 video frame)
Interleave, preload duration : 500 ms
Внимание! Раздача ведётся путём добавления новых серий, при каждом добавлении создаётся новый торрент. Чтобы начать докачку новой серии, пользователям необходимо сделать следующее:
(1) остановить скачивание,
(2) удалить старый торрент у себя из клиента (старые серии удалять не надо),
(3) скачать новый торрент и запустить его у себя в клиенте вместо старого, при этом указать клиенту путь в старую папку куда и должно происходить скачивание новых серий.
Ваш клиент при этом должен произвести хеширование (проверку) старой папки (если не производит сам - помогите ему сделать это), и будет докачивать только те серии которых у вас ещё нет. Старые серии при этом не удаляются, а продолжают раздаваться!
Если вы уже удалили старые серии, то предотвратить повторную закачку старых серий можно, отжав галочку в соответствующих местах при запуске нового торрента. По возможности, желательно не удалять старые серии как можно дольше чтобы релизёр не столько продолжал раздавать старые серии, а смог сконцентрироваться на новых.

Торрент перезалит! добавлена финальная 13-я серия 05.06.2013




Скачать Клан.Сопрано.The.Sopranos.(Полный.1-ый.сезон).(Тимоти.Ван.Паттен.Джон.Паттерсон.Аллен.Култер).[1999.драма.криминал.BDRip].[AVO].(Ю.Сербин).torrent без регистрации
Золото ЗОЛОТАЯ РАЗДАЧА! СКАЧАННОЕ НЕ ЗАСЧИТЫВАЕТСЯ! Золото
Дата: Зарегистрирован   [ Тип: внутренний ] Как тут cкачать?
MAGNET ссылка
MAGNET ссылка


Скачать .torrent

24 KB

Статус: проверено DHT
Скачан: торрент - 399 раз, раздача полностью - 215 раз
Размер: 8,89 GB
Оценка:  5 (Голосов: 3)
Поблагодарили: 2
Поделиться ссылкой на эту раздачу с друзьями:
В контактеFacebookОдноклассникиTwitterLivejournalМой МирLiveinternet
 

 

leon030982

[] 

добавлена 7-я серия 19.03.2013
az
 

leon030982

[] 

8-я серия az
 

leon030982

[] 

9-я серия az ay
 

leon030982

[] 

10-я серия az ay
 

leon030982

[] 

11-я серия az
 

leon030982

[] 

 

leon030982

[] 

добавлена финальная серия 1-го сезона az
 
Показать сообщения:    


Вы не можете начинать темы
Вы не можете отвечать на сообщения
Вы не можете редактировать свои сообщения
Вы не можете удалять свои сообщения
Вы не можете голосовать в опросах
Вы не можете прикреплять файлы к сообщениям
Вы можете скачивать файлы