Loading...
Error

Скачать Медовый месяц Камиллы / Camille (Грегори МакКензи) [2007, фэнтези, драма, мелодрама, комедия, приключения, HDRip] [AVC] [Dub]+[Sub] торрент без регистрации

 
Статистика раздачи
Размер:  2,48 GB   |    Скачан:  121 раз
Сидов:  1  [  0 KB/s  ]  
 
Автор Сообщение

Marsianka

[] 

Информация о фильме
Название: Медовый месяц Камиллы
Оригинальное название: Camille
Год выпуска: 2008
Жанр: фэнтези, драма, мелодрама, комедия, приключения
Режиссер: Грегори МакКензи
В ролях: Сиенна Миллер, Джеймс Франко, Дэвид Кэрредин, Скотт Гленн, Эд Лотер, Марк Уилсон, Патриция Йетмен, Стив Маркофф, Тайлер Хайнс, Мими Кузык, Джеймс Б. Дуглас, Джордж Бьюза, Лииса Репо-Мартелл, Николас Каеги, Дж. Адам Браун, Шаррон Мэтьюз, Паула Бодро, Билл Лэйк, Моника Доттер, Лоурен Эш, Пол Бейтс, Шеннон МакДонаф, Джефф МакИнери, Майк Шир, Джон Уотсон, Мэтт Смит, Сэнди Джобин-Биванс, Эйвери Бисби, Александра Радди

О фильме: Что может быть романтичнее медового месяца на Ниагаре? Но для Сайласа и Камиллы это будет необычное путешествие. Сайлас мелкий мошенник, он женится на племяннице шерифа, только чтобы не попасть в тюрьму. Но влюбленная Камилла верит, что ее чувства изменят избранника. И ничто не помешает сбыться ее мечте о медовом месяце, даже собственная смерть

Рейтинг PG-13 - Детям до 13 лет просмотр не желателен

Настоятельное предупреждение родителям. Данный рейтинг получают фильмы, содержание которых может считаться неприемлемым для детей, не достигших 13-летнего возраста.

В фильме отсутствуют сцены с насилием и «обнажёнкой», но уже могут присутствовать неконкретизированные эпизоды с наркотиками и слова, связанные с сексом.
Релиз от:


Страна: США, Великобритания
Студия: A-Mark Entertainment, Camille Productions, Golconda Films Ltd.
Продолжительность: 01:30:59
Перевод: Дублированный

Файл
Кодек: x264
Качество: HDRip (AVC)
Видео: MPEG-4 AVC, 3000 Кбит/с, 1024x576
Аудио: Русский, английский (AC3, 6 ch, 448 Кбит/с)
Субтитры: Русские, английские
Общее
Уникальный идентификатор : 189490347795699649342508431060310153102 (0x8E8E8374AF2517E6A91EE471DCC7D78E)
Полное имя : E:релизы 2013медовый месяц камиллыMedovyj.mesjac.Kamilly.2007.x264.HDRip.(AVC)-ExKinoRay.mkv
Формат : Matroska
Версия формата : Version 2
Размер файла : 2,48 Гбайт
Продолжительность : 1 ч. 30 м.
Общий поток : 3896 Кбит/сек
Название фильма : Medovyj.mesjac.Kamilly.2007.x264.HDRip.(AVC)-ExKinoRay
Дата кодирования : UTC 2013-01-18 15:52:33
Программа кодирования : mkvmerge v5.8.0 ('No Sleep / Pillow') built on Sep 2 2012 15:37:04
Библиотека кодирования : libebml v1.2.3 + libmatroska v1.3.0

Видео
Идентификатор : 1
Формат : AVC
Формат/Информация : Advanced Video Codec
Профиль формата : High@L4.1
Параметр CABAC формата : Да
Параметр ReFrames формата : 9 кадров
Идентификатор кодека : V_MPEG4/ISO/AVC
Продолжительность : 1 ч. 30 м.
Битрейт : 3000 Кбит/сек
Ширина : 1024 пикселя
Высота : 576 пикселей
Соотношение сторон : 16:9
Режим частоты кадров : Постоянный
Частота кадров : 23,976 кадра/сек
Цветовое пространство : YUV
Субдискретизация насыщенности : 4:2:0
Битовая глубина : 8 бит
Тип развёртки : Прогрессивная
Бит/(Пиксели*Кадры) : 0.212
Размер потока : 1,86 Гбайт (75%)
Библиотека кодирования : x264 core 125 r2208 d9d2288
Настройки программы : cabac=1 / ref=9 / deblock=1:-1:-1 / analyse=0x3:0x133 / me=umh / subme=11 / psy=1 / psy_rd=1.00:0.10 / mixed_ref=1 / me_range=48 / chroma_me=1 / trellis=2 / 8x8dct=1 / cqm=0 / deadzone=21,11 / fast_pskip=0 / chroma_qp_offset=-3 / threads=6 / lookahead_threads=1 / sliced_threads=0 / nr=0 / decimate=1 / interlaced=0 / bluray_compat=0 / constrained_intra=0 / bframes=11 / b_pyramid=2 / b_adapt=2 / b_bias=0 / direct=3 / weightb=1 / open_gop=0 / weightp=2 / keyint=240 / keyint_min=23 / scenecut=40 / intra_refresh=0 / rc_lookahead=50 / rc=2pass / mbtree=1 / bitrate=3000 / ratetol=1.0 / qcomp=0.60 / qpmin=0 / qpmax=69 / qpstep=4 / cplxblur=20.0 / qblur=0.5 / ip_ratio=1.40 / aq=1:1.00
Default : Да
Forced : Нет

Аудио #1
Идентификатор : 2
Формат : AC-3
Формат/Информация : Audio Coding 3
Расширение режима : CM (complete main)
Параметр Endianness формата : Big
Идентификатор кодека : A_AC3
Продолжительность : 1 ч. 30 м.
Вид битрейта : Постоянный
Битрейт : 448 Кбит/сек
Каналы : 6 каналов
Расположение каналов : Front: L C R, Side: L R, LFE
Частота : 48,0 КГц
Битовая глубина : 16 бит
Метод сжатия : С потерями
Размер потока : 292 Мбайт (12%)
Заголовок : Дублированный 448 kbps AC3 6ch
Язык : Russian
Default : Да
Forced : Нет

Аудио #2
Идентификатор : 3
Формат : AC-3
Формат/Информация : Audio Coding 3
Расширение режима : CM (complete main)
Параметр Endianness формата : Big
Идентификатор кодека : A_AC3
Продолжительность : 1 ч. 30 м.
Вид битрейта : Постоянный
Битрейт : 448 Кбит/сек
Каналы : 6 каналов
Расположение каналов : Front: L C R, Side: L R, LFE
Частота : 48,0 КГц
Битовая глубина : 16 бит
Метод сжатия : С потерями
Размер потока : 292 Мбайт (12%)
Заголовок : English 448 kbps AC3 6ch
Язык : English
Default : Нет
Forced : Нет

Текст #1
Идентификатор : 4
Формат : UTF-8
Идентификатор кодека : S_TEXT/UTF8
Идентификатор кодека/Информация : UTF-8 Plain Text
Заголовок : Russian SRT
Язык : Russian
Default : Нет
Forced : Нет

Текст #2
Идентификатор : 5
Формат : UTF-8
Идентификатор кодека : S_TEXT/UTF8
Идентификатор кодека/Информация : UTF-8 Plain Text
Заголовок : English SRT
Язык : English
Default : Нет
Forced : Нет
Дата релиза: 18.01.2013




Скачать Медовый.месяц.Камиллы.Camille.(Грегори.МакКензи).[2007.фэнтези.драма.мелодрама.комедия.приключения.HDRip].[AVC].[Dub]+[Sub].torrent без регистрации
Золото ЗОЛОТАЯ РАЗДАЧА! СКАЧАННОЕ НЕ ЗАСЧИТЫВАЕТСЯ! Золото
Дата: Зарегистрирован   [ Тип: внутренний ] Как тут cкачать?
MAGNET ссылка
MAGNET ссылка


Скачать .torrent

13 KB

Статус: проверено DHT
Скачан: торрент - 121 раз, раздача полностью - 11 раз
Размер: 2,48 GB
Оценка:  - (Голосов: 0)
Поблагодарили: 3
Поделиться ссылкой на эту раздачу с друзьями:
В контактеFacebookОдноклассникиTwitterLivejournalМой МирLiveinternet
 

 
Показать сообщения:    


Вы не можете начинать темы
Вы не можете отвечать на сообщения
Вы не можете редактировать свои сообщения
Вы не можете удалять свои сообщения
Вы не можете голосовать в опросах
Вы не можете прикреплять файлы к сообщениям
Вы можете скачивать файлы