Loading...
Error

Скачать Неукротимый / На грани безумия / Frantic (Роман Полански) [1988, триллер, драма, криминал, детектив, HDRip] [Dub] торрент без регистрации

 
Статистика раздачи
Размер:  746 MB   |    Скачан:  117 раз
Сидов:  1  [  0 KB/s  ]  
 
Автор Сообщение

Marsianka

[] 

Информация о фильме
Название: Неукротимый / На грани безумия
Оригинальное название: Frantic
Год выхода: 1988
Жанр: триллер, драма, криминал, детектив
Режиссер: Роман Полански / Roman Polanski
В ролях: Харрисон Форд, Бетти Бакли, Эмманюэль Сенье, Джон Махони, Жерар Клейн, Александра Стюарт, Дэвид Хаддлстон, Роберт Барр, Йорго Воягис, Рауф Бен Амор

О фильме:
Врач Ричард Уолкер и его жена Сондра когда-то провели в Париже свой медовый месяц. И вот они снова в любимом городе Разместившись в гостинице, они собираются немного отдохнуть. Но, выйдя из ванной комнаты, Ричард обнаруживает, что жены в номере нет. Поиски не приносят никакого результата. Не зная языка, доктор мечется по городу, в котором никто не хочет ему помочь. Никто, кроме проститутки Мишель.



Страна: США, Франция
Продолжительность: 01:59:52
Перевод: Профессиональный (дублированный)

Файл
Кодек: XviD
Качество: HDRip
Видео: 656x368 (16:9), 23.976 fps, 733 Kbps, 0.127 Bits/(Pixel*Frame)
Звук: MP3, 48 KHz, 128 Kbps, 2 channels

Семпл
General
Complete name : D:Neukrotimyj.1988.HDRip.XviD.746mb.avi
Format : AVI
Format/Info : Audio Video Interleave
File size : 746 MiB
Duration : 1h 59mn
Overall bit rate : 870 Kbps
Writing application : VirtualDubMod 1.5.10.2 (build 2540/release)
Writing library : VirtualDubMod build 2540/release

Video
ID : 0
Format : MPEG-4 Visual
Format profile : Advanced Simple@L5
Format settings, BVOP : 1
Format settings, QPel : No
Format settings, GMC : No warppoints
Format settings, Matrix : Custom
Codec ID : XVID
Codec ID/Hint : XviD
Duration : 1h 59mn
Bit rate : 733 Kbps
Width : 656 pixels
Height : 368 pixels
Display aspect ratio : 16:9
Frame rate : 23.976 fps
Color space : YUV
Chroma subsampling : 4:2:0
Bit depth : 8 bits
Scan type : Progressive
Compression mode : Lossy
Bits/(Pixel*Frame) : 0.127
Stream size : 628 MiB (84%)
Writing library : XviD 1.2.1 (UTC 2008-12-04)

Audio
ID : 1
Format : MPEG Audio
Format version : Version 1
Format profile : Layer 3
Mode : Joint stereo
Codec ID : 55
Codec ID/Hint : MP3
Duration : 1h 59mn
Bit rate mode : Constant
Bit rate : 128 Kbps
Channel(s) : 2 channels
Sampling rate : 48.0 KHz
Compression mode : Lossy
Stream size : 110 MiB (15%)
Alignment : Aligned on interleaves
Interleave, duration : 42 ms (1.00 video frame)
Interleave, preload duration : 504 ms











Скачать Неукротимый.На.грани.безумия.Frantic.(Роман.Полански).[1988.триллер.драма.криминал.детектив.HDRip].[Dub].torrent без регистрации
Золото ЗОЛОТАЯ РАЗДАЧА! СКАЧАННОЕ НЕ ЗАСЧИТЫВАЕТСЯ! Золото
Дата: Зарегистрирован   [ Тип: внутренний ] Как тут cкачать?
MAGNET ссылка
MAGNET ссылка


Скачать .torrent

15 KB

Статус: проверено DHT
Скачан: торрент - 117 раз, раздача полностью - 57 раз
Размер: 746 MB
Оценка:  5 (Голосов: 2)
Поблагодарили: 4
Поделиться ссылкой на эту раздачу с друзьями:
В контактеFacebookОдноклассникиTwitterLivejournalМой МирLiveinternet
 

 

19Soldier78

[] 

Отличный фильм
Пересматриваю не первый раз
 
Показать сообщения:    


Вы не можете начинать темы
Вы не можете отвечать на сообщения
Вы не можете редактировать свои сообщения
Вы не можете удалять свои сообщения
Вы не можете голосовать в опросах
Вы не можете прикреплять файлы к сообщениям
Вы можете скачивать файлы