Loading...
Error

Скачать Без тормозов / Do Me a Favor / Trading Favors (Сондра Лок / Sondra Locke) [1997, Драма, криминал, DVDRip] [AVO] (Пётр Карцев) + [VO] (POL) торрент без регистрации

 
Статистика раздачи
Размер:  799 MB   |    Скачан:  117 раз
Сидов:  1  [  0 KB/s  ]  
 
Автор Сообщение

leon030982

[] 

Без тормозов / Do Me a Favor / Trading Favors

«Bad girls make good company.»

Страна: США
Жанр: Драма, криминал
Год выпуска: 1997
Продолжительность: 01:39:49
Перевод: Авторский (одноголосый закадровый) (Пётр Карцев)
Cубтитры: нет
Оригинальная аудиодорожка: нет

Режиссер: Сондра Лок / Sondra Locke

В ролях: Розанна Аркетт, Джордж Дзундза, Девон Гаммерсолл, Джули Ариола, Фрэнсис Фишер, Джейсон Херви, Крэйг Най, Дьюк Валенти, Чад Лоу, Саачико.

Описание: В маленькой грязной общественной уборной привлекательная женщина, сдирая кожу с кровью, пытается снять наручники со своих рук. Эта женщина далеко не святая: грабить и «кидать» людей она научилась замечательно.
Её разыскивает полиция и полоумный дружок, которого она обворовала до нитки. Теперь ей нужны новые наивные жертвы. И они, как нельзя кстати, оказались поблизости.
Но она не учла, что всё может произойти не так, как обычно. Обыкновенная авантюра обернётся головокружительным, рискованным путешествием, из которого она уже не вернётся…




Качество видео: DVDRip
Формат видео: AVI
Видео: 576x432 (1.33:1), 25 fps, XviD 1.1 beta 2 (build 39) ~847 kbps avg, 0.14 bit/pixel
Аудио 1: 44.100 kHz, MPEG Layer 3, 2 ch, ~128.00 kbps avg - русский
Аудио 2: 48 kHz, MPEG Layer 3, 2 ch, ~128.00 kbps avg - польский (одноголосый закадровый)
General
Complete name : D:\Public\Do.Me.a.Favor.1997.Rus+PL.DVDRip.XviD lektor.avi
Format : AVI
Format/Info : Audio Video Interleave
File size : 799 MiB
Duration : 1h 39mn
Overall bit rate : 1 119 Kbps
Writing application : VirtualDubMod 1.5.10.2 (build 2542/release)
Writing library : VirtualDubMod build 2542/release
Video
ID : 0
Format : MPEG-4 Visual
Format profile : Simple@L3
Format settings, BVOP : 1
Format settings, QPel : No
Format settings, GMC : No warppoints
Format settings, Matrix : Custom
Codec ID : XVID
Codec ID/Hint : XviD
Duration : 1h 39mn
Bit rate : 848 Kbps
Width : 576 pixels
Height : 432 pixels
Display aspect ratio : 4:3
Frame rate : 25.000 fps
Color space : YUV
Chroma subsampling : 4:2:0
Bit depth : 8 bits
Scan type : Progressive
Compression mode : Lossy
Bits/(Pixel*Frame) : 0.136
Stream size : 606 MiB (76%)
Writing library : XviD 1.1.0 Beta2 (UTC 2005-04-04)
Audio #1
ID : 1
Format : MPEG Audio
Format version : Version 1
Format profile : Layer 3
Mode : Joint stereo
Mode extension : MS Stereo
Codec ID : 55
Codec ID/Hint : MP3
Duration : 1h 39mn
Bit rate mode : Constant
Bit rate : 128 Kbps
Channel(s) : 2 channels
Sampling rate : 44.1 KHz
Compression mode : Lossy
Stream size : 91.4 MiB (11%)
Alignment : Split accross interleaves
Interleave, duration : 40 ms (1.00 video frame)
Interleave, preload duration : 500 ms
Writing library : LAME3.98.2ЄЄЄЄЄЄЄЄЄЄ
Language : Polish
Audio #2
ID : 2
Format : MPEG Audio
Format version : Version 1
Format profile : Layer 3
Mode : Joint stereo
Mode extension : MS Stereo
Codec ID : 55
Codec ID/Hint : MP3
Duration : 1h 39mn
Bit rate mode : Constant
Bit rate : 128 Kbps
Channel(s) : 2 channels
Sampling rate : 48.0 KHz
Compression mode : Lossy
Stream size : 91.4 MiB (11%)
Alignment : Aligned on interleaves
Interleave, duration : 40 ms (1.00 video frame)
Interleave, preload duration : 504 ms
Writing library : LAME3.97b
Encoding settings : -m j -V 4 -q 2 -lowpass 17 -b 128



Скачать Без.тормозов.Do.Me.a.Favor.Trading.Favors.(Сондра.Лок.Sondra.Locke).[1997.Драма.криминал.DVDRip].[AVO].(Пётр.Карцев).+.[VO].(POL).torrent без регистрации
Золото ЗОЛОТАЯ РАЗДАЧА! СКАЧАННОЕ НЕ ЗАСЧИТЫВАЕТСЯ! Золото
Дата: Зарегистрирован   [ Тип: внутренний ] Как тут cкачать?
MAGNET ссылка
MAGNET ссылка


Скачать .torrent

16 KB

Статус: проверено DHT
Скачан: торрент - 117 раз, раздача полностью - 6 раз
Размер: 799 MB
Оценка:  - (Голосов: 0)
Поблагодарили: 0
Поделиться ссылкой на эту раздачу с друзьями:
В контактеFacebookОдноклассникиTwitterLivejournalМой МирLiveinternet
 

 
Показать сообщения:    


Вы не можете начинать темы
Вы не можете отвечать на сообщения
Вы не можете редактировать свои сообщения
Вы не можете удалять свои сообщения
Вы не можете голосовать в опросах
Вы не можете прикреплять файлы к сообщениям
Вы можете скачивать файлы