Loading...
Error

Скачать Батарейки не прилагаются / Batteries Not Included (Мэттью Роббинс / Matthew Robbins) [1987, фантастика, семейный, DVDRip] [DVO] (СТС) торрент без регистрации

 
Статистика раздачи
Размер:  1,37 GB   |    Скачан:  5374 раза

Полного источника не было: 24 минуты

 
Автор Сообщение

leon030982

[] 

Батарейки не прилагаются / Batteries Not Included


Год выпуска: 1987
Страна: США
Жанр: фантастика, семейный
Продолжительность: 01:42:03
Перевод: Профессиональный (двухголосый закадровый)
Cубтитры: нет

Режиссер: Мэттью Роббинс / Matthew Robbins

В ролях: Хьюм Кронин, Джессика Тэнди, Фрэнк МакРэй, Элизабет Пенья, Майкл Кармайн, Деннис Бутсикарис, Том Олдредж и др.

Описание: Дом, в котором живут наши герои, подлежит сносу, и горстка домочадцев — пожилая семейная пара Райли, бывший боксер Гарри, молодая пуэрториканка Мариса и художник Мэйсон — отчаянно борются за спасение милых сердцу трущоб.
Беднягам остается надеятся только на чудо, и оно случается: помощь приходит от братьев по разуму. Однажды ночью квартиру Райли посещают неожиданные гости — крохотные НЛО.



Качество: DVDRip
Формат: AVI
Видео кодек: XviD
Аудио кодек: AC3
Видео: 720x384, 25 fps, XviD 47 ~1717 kbps, 0.248 bit/pixel
Аудио: 48 kHz, Rus, AC3 Dolby Digital, 2/0 (L,R) ch, ~192 kbps [СТС] VHSRip
General
Complete name : G:\Batteries.not.Included.1987.DVDRip-STS.avi
Format : AVI
Format/Info : Audio Video Interleave
File size : 1.37 GiB
Duration : 1h 42mn
Overall bit rate : 1 919 Kbps
Writing application : VirtualDubMod 1.5.10.2 (build 2540/release)
Writing library : VirtualDubMod build 2540/release
Video
ID : 0
Format : MPEG-4 Visual
Format profile : Advanced Simple@L5
Format settings, BVOP : 1
Format settings, QPel : No
Format settings, GMC : No warppoints
Format settings, Matrix : Custom
Codec ID : XVID
Codec ID/Hint : XviD
Duration : 1h 42mn
Bit rate : 1 717 Kbps
Width : 720 pixels
Height : 384 pixels
Display aspect ratio : 1.85:1
Frame rate : 25.000 fps
Color space : YUV
Chroma subsampling : 4:2:0
Bit depth : 8 bits
Scan type : Progressive
Compression mode : Lossy
Bits/(Pixel*Frame) : 0.248
Stream size : 1.22 GiB (89%)
Writing library : XviD 1.2.0.dev47 (UTC 2006-11-01)
Audio
ID : 1
Format : AC-3
Format/Info : Audio Coding 3
Mode extension : CM (complete main)
Format settings, Endianness : Big
Codec ID : 2000
Duration : 1h 42mn
Bit rate mode : Constant
Bit rate : 192 Kbps
Channel(s) : 2 channels
Channel positions : Front: L R
Sampling rate : 48.0 KHz
Bit depth : 16 bits
Compression mode : Lossy
Stream size : 140 MiB (10%)
Alignment : Split accross interleaves
Interleave, duration : 40 ms (1.00 video frame)
Interleave, preload duration : 500 ms
Language : Russian



Скачать Батарейки.не.прилагаются.Batteries.Not.Included.(Мэттью.Роббинс.Matthew.Robbins).[1987.фантастика.семейный.DVDRip].[DVO].(СТС).torrent без регистрации
Золото ЗОЛОТАЯ РАЗДАЧА! СКАЧАННОЕ НЕ ЗАСЧИТЫВАЕТСЯ! Золото
Дата: Зарегистрирован   [ Тип: внутренний ] Как тут cкачать?
MAGNET ссылка
MAGNET ссылка


Скачать .torrent

2 KB

Статус: проверено DHT
Скачан: торрент - 5374 раз, раздача полностью - 97 раз
Размер: 1,37 GB
Оценка:  5 (Голосов: 1)
Поблагодарили: 1
Поделиться ссылкой на эту раздачу с друзьями:
В контактеFacebookОдноклассникиTwitterLivejournalМой МирLiveinternet
 

 
Показать сообщения:    


Вы не можете начинать темы
Вы не можете отвечать на сообщения
Вы не можете редактировать свои сообщения
Вы не можете удалять свои сообщения
Вы не можете голосовать в опросах
Вы не можете прикреплять файлы к сообщениям
Вы можете скачивать файлы