Loading...
Error

Скачать Черный орел / Black Eagle (Эрик Карсон / Eric Karson) [1988 г., боевик, драма, криминал, DVDRip] [MVO] (СТС) + [DVO] (Twister Digital Video / Россия-1) торрент без регистрации

 
Статистика раздачи
Размер:  1,46 GB   |    Скачан:  118 раз
Сидов:  1  [  0 KB/s  ]  
 
Автор Сообщение

leon030982

[] 

Черный орел / Black Eagle


Год выпуска: 1988
Страна: США
Жанр: боевик, драма, криминал
Продолжительность: 01:29:12
Перевод 1: Профессиональный (многоголосый, закадровый) [СТС]
Перевод 2: Профессиональный (двухголосый, закадровый) [Twister Digital Video / Россия-1]

Режиссер: Эрик Карсон / Eric Karson

В ролях: Жан-Клод Ван Дамм, Шо Косуги, Доран Кларк, Брюс Френч, Владимир Скомаровский, Уильям Бассетт, Кейн Косуги, Шейн Косуги, Дорота Пузио, Ян Тришка

Описание: Военный самолет США, оснащенный новой системой лазерного наведения, терпит крушение рядом с островом Мальта. ЦРУ немедленно высылает своего лучшего агента Кена Тани (Шо Косуги), чтобы помешать агенту КГБ Андрею (Жан-Клод Ван Дамм) выкрасть новое секретное оружие....

Автор релиза:
Качество видео: DVDRip
Формат файла: AVI
Видео: 720x544, 25.000 fps, MPEG-4 Visual, 1949 kbps
Аудио 1: 48 kHz, MP3, 2 ch, 192 kbps [СТС]
Аудио 2: 48 kHz, MP3, 2 ch, 192 kbps [Twister Digital Video / Россия-1]
General
Format : AVI
Format/Info : Audio Video Interleave
File size : 1.46 GiB
Duration : 1h 29mn
Overall bit rate : 2 347 Kbps
Writing application : VirtualDubMod 1.5.10.3 (build 2550/release)
Writing library : VirtualDubMod build 2550/release
Video
ID : 0
Format : MPEG-4 Visual
Format profile : Advanced Simple@L5
Format settings, BVOP : 1
Format settings, QPel : No
Format settings, GMC : No warppoints
Format settings, Matrix : Custom
Codec ID : XVID
Codec ID/Hint : XviD
Duration : 1h 29mn
Bit rate : 1 949 Kbps
Width : 720 pixels
Height : 544 pixels
Display aspect ratio : 4:3
Frame rate : 25.000 fps
Color space : YUV
Chroma subsampling : 4:2:0
Bit depth : 8 bits
Scan type : Progressive
Compression mode : Lossy
Bits/(Pixel*Frame) : 0.199
Stream size : 1.21 GiB (83%)
Writing library : XviD 1.2.1 (UTC 2008-12-04)
Audio #1
ID : 1
Format : MPEG Audio
Format version : Version 1
Format profile : Layer 3
Mode : Joint stereo
Codec ID : 55
Codec ID/Hint : MP3
Duration : 1h 29mn
Bit rate mode : Constant
Bit rate : 192 Kbps
Channel(s) : 2 channels
Sampling rate : 48.0 KHz
Compression mode : Lossy
Stream size : 122 MiB (8%)
Alignment : Aligned on interleaves
Interleave, duration : 40 ms (1.00 video frame)
Interleave, preload duration : 504 ms
Audio #2
ID : 2
Format : MPEG Audio
Format version : Version 1
Format profile : Layer 3
Mode : Joint stereo
Codec ID : 55
Codec ID/Hint : MP3
Duration : 1h 29mn
Bit rate mode : Constant
Bit rate : 192 Kbps
Channel(s) : 2 channels
Sampling rate : 48.0 KHz
Compression mode : Lossy
Stream size : 122 MiB (8%)
Alignment : Aligned on interleaves
Interleave, duration : 40 ms (1.00 video frame)
Interleave, preload duration : 504 ms




Скачать Черный.орел.Black.Eagle.(Эрик.Карсон.Eric.Karson).[1988.г.боевик.драма.криминал.DVDRip].[MVO].(СТС).+.[DVO].(Twister.Digital.Video.Россия-1).torrent без регистрации
Золото ЗОЛОТАЯ РАЗДАЧА! СКАЧАННОЕ НЕ ЗАСЧИТЫВАЕТСЯ! Золото
Дата: Зарегистрирован   [ Тип: внутренний ] Как тут cкачать?
MAGNET ссылка
MAGNET ссылка


Скачать .torrent

15 KB

Статус: проверено DHT
Скачан: торрент - 118 раз, раздача полностью - 7 раз
Размер: 1,46 GB
Оценка:  - (Голосов: 0)
Поблагодарили: 0
Поделиться ссылкой на эту раздачу с друзьями:
В контактеFacebookОдноклассникиTwitterLivejournalМой МирLiveinternet
 

 
Показать сообщения:    


Вы не можете начинать темы
Вы не можете отвечать на сообщения
Вы не можете редактировать свои сообщения
Вы не можете удалять свои сообщения
Вы не можете голосовать в опросах
Вы не можете прикреплять файлы к сообщениям
Вы можете скачивать файлы