Loading...
Error

Скачать Тернер и Хуч / Turner & Hooch (Роджер Споттисвуд / Roger Spottiswoode) [1989, триллер, драма, комедия, криминал, HDTVRip] [Dub] (СВ-Дубль по заказу ВГТРК) + [Original Eng] торрент без регистрации

 
Статистика раздачи
Размер:  1,37 GB   |    Скачан:  136 раз
Сидов:  1  [  0 KB/s  ]  
 
Автор Сообщение

leon030982

[] 

Тернер и Хуч / Turner & Hooch


Год выпуска: 1989
Страна: США
Жанр: триллер, драма, комедия, криминал
Продолжительность: 1:35:25
Перевод: Профессиональный (дублированный) [СВ-Дубль по заказу ВГТРК]
Cубтитры: нет
Оригинальная аудиодорожка: английский

Режиссер: Роджер Споттисвуд / Roger Spottiswoode

В ролях: Том Хэнкс, Мэр Уиннингхэм, Крэйг Т. Нельсон, Реджинальд ВелДжонсон, Скотт Полин, Дж. К. Куин, Джон МакИнтайр, Дэвид Нелл, Эбби Роу Смит, Кевин Сканнелл

Описание: Профессиональный сыщик Скотт Тернер ненавидит беспорядок. В его жизни все заранее спланировано и предсказуемо. Хуч — самый неспокойный, самый невоспитанный и абсолютно неподдающийся дрессировке пес. Не повезет тому несчастному хозяину, к которому он попадет. Тернер слишком поздно понял, кого впустил в свой дом. Но шумные ссоры ни к чему не привели. Возможно, лучший способ одолеть своего врага, это подружиться с ним.



Сэмпл: http://multi-up.com/818967
Качество видео: HDTVRip
Формат видео: AVI
Видео: 720x384 (1.88:1), 25 fps, XviD build 50 ~1405 kbps avg, 0.20 bit/pixel
Аудио: AC-3, 48.0 KHz, 256 Kbps, 1 channel, дубляж
Аудио 2: AC3 Dolby Digital, 48 kHz, ~384.00 kbps, 3/2 (L,C,R,l,r) + LFE ch, оригинал
Первоначально режиссером был назначен Генри Уинклер, но был уволен через тринадцать дней из-за творческих разногласий.
На роль Тернера рассматривались Джек Николсон, Билл Мюррей и Чеви Чейз.
Порода Хуча - бордоский дог. Его настоящая кличка Бисли.
В 1990 году Disney попыталась запустить телесериал по мотивам фильма, но дальше пилота дело не пошло.
За три месяца до премьеры "Тернера и Хуча" на экраны США вышел фильм на похожую тему - с Джеймсом Белуши. Но в плане сборов "Тернер" был более успешен.
Фильм дублирован фирмой "СВ-Дубль" по заказу ВГТРК в 1996 году. Перевод Артема Осокина , автор синхронного текста Светлана Карпук, режиссёр дубляжа Вячеслав Максаков, роли дублировали Владимир Вихров, Елена Соловьева, Александр Рыжков, Юрий Саранцев, Рудольф Панков, Всеволд Абдулов, Владимир Басов.
Ближе к 6-ой минуте фильма есть вставка с английской дорожки. В видеоряде РТР почему-то отсутствуют 2 секунды.
Format : AVI
Format/Info : Audio Video Interleave
File size : 1.37 GiB
Duration : 1h 35mn
Overall bit rate : 2 061 Kbps
Writing application : VirtualDubModRus 1.5.10.2 (build 2542/release)
Writing library : VirtualDubMod build 2542/release
Video
ID : 0
Format : MPEG-4 Visual
Format profile : Advanced Simple@L5
Format settings, BVOP : 2
Format settings, QPel : No
Format settings, GMC : No warppoints
Format settings, Matrix : Custom
Codec ID : XVID
Codec ID/Hint : XviD
Duration : 1h 35mn
Bit rate : 1 407 Kbps
Width : 720 pixels
Height : 384 pixels
Display aspect ratio : 1.875
Frame rate : 25.000 fps
Color space : YUV
Chroma subsampling : 4:2:0
Bit depth : 8 bits
Scan type : Progressive
Compression mode : Lossy
Bits/(Pixel*Frame) : 0.204
Stream size : 960 MiB (68%)
Writing library : XviD 1.2.1 (UTC 2008-12-04)
Audio #1
ID : 1
Format : AC-3
Format/Info : Audio Coding 3
Mode extension : CM (complete main)
Codec ID : 2000
Duration : 1h 35mn
Bit rate mode : Constant
Bit rate : 256 Kbps
Channel(s) : 1 channel
Channel positions : Front: C
Sampling rate : 48.0 KHz
Bit depth : 16 bits
Compression mode : Lossy
Stream size : 175 MiB (12%)
Alignment : Aligned on interleaves
Interleave, duration : 40 ms (1.00 video frame)
Interleave, preload duration : 512 ms
Audio #2
ID : 2
Format : AC-3
Format/Info : Audio Coding 3
Mode extension : CM (complete main)
Codec ID : 2000
Duration : 1h 35mn
Bit rate mode : Constant
Bit rate : 384 Kbps
Channel(s) : 6 channels
Channel positions : Front: L C R, Side: L R, LFE
Sampling rate : 48.0 KHz
Bit depth : 16 bits
Compression mode : Lossy
Stream size : 262 MiB (19%)
Alignment : Split accross interleaves
Interleave, duration : 40 ms (1.00 video frame)
Interleave, preload duration : 500 ms



Скачать Тернер.и.Хуч.Turner.&.Hooch.(Роджер.Споттисвуд.Roger.Spottiswoode).[1989.триллер.драма.комедия.криминал.HDTVRip].[Dub].(СВ-Дубль.по.заказу.ВГТРК).+.[Original.Eng].torrent без регистрации
Золото ЗОЛОТАЯ РАЗДАЧА! СКАЧАННОЕ НЕ ЗАСЧИТЫВАЕТСЯ! Золото
Дата: Зарегистрирован   [ Тип: внутренний ] Как тут cкачать?
MAGNET ссылка
MAGNET ссылка


Скачать .torrent

14 KB

Статус: проверено DHT
Скачан: торрент - 136 раз, раздача полностью - 33 раз
Размер: 1,37 GB
Оценка:  - (Голосов: 0)
Поблагодарили: 3
Поделиться ссылкой на эту раздачу с друзьями:
В контактеFacebookОдноклассникиTwitterLivejournalМой МирLiveinternet
 

 
Показать сообщения:    


Вы не можете начинать темы
Вы не можете отвечать на сообщения
Вы не можете редактировать свои сообщения
Вы не можете удалять свои сообщения
Вы не можете голосовать в опросах
Вы не можете прикреплять файлы к сообщениям
Вы можете скачивать файлы