Loading...
Error

Скачать Удар из космоса / Tycus (Джон Путч) [1998, фантастика, боевик, приключения, DVDRip] [AVO (Ю.Сербин)] торрент без регистрации

 
Статистика раздачи
Размер:  1,46 GB   |    Скачан:  112 раз

Полного источника не было: 24 минуты

 
Автор Сообщение

МихаНЕзатор

[] 

Год выпуска: 1998
Страна: США
Жанр: фантастика, боевик, приключения
Продолжительность: 01:30:33

Перевод: Авторский (одноголосый) Ю.Сербин
Русские субтитры: нет

Режиссер: Джон Путч / John Putch

В ролях: Дэннис Хоппер, Цуёши Абе, Тодд Аллен, Сара Бибб, Блейк Кларк, Сара Далтон, Сонни Д`Анджело, Элисса Давалос, Ши Фаррелл, Сандра Френсис, Джо Хэкетт

Описание: Приближается новое тысячелетие. Число землетрясений, извержений вулканов и прочих природных катаклизмов достигает своего апогея. Мир рушится на глазах. А из глубин космоса к земле несется гигантская комета Тайкус.
Об этой страшной гостье знают лишь избранные. Они пытаются сделать все, возможное и невозможное, чтобы сохранить группу людей для продолжения человеческой цивилизации. Но до конца света остаются считанные дни

Исходник: DVD5
Тип релиза: DVDRip
Контейнер: AVI

Видео: 704x528 (4:3), 24 fps, XviD ~ 1908 kbps avg, 0.205 bit/pixel
Аудио: 48 kHz, МР3 , 6 ch, 384.00 kbps


Общее
Полное имя : Udar.iz.kosmosa.1998.A.DVDRip_[youtracker]_by_avproh.avi
Формат : AVI
Формат/Информация : Audio Video Interleave
Размер файла : 1,46 Гбайт
Продолжительность : 1 ч. 30 м.
Общий поток : 2302 Кбит/сек
Программа кодирования : VirtualDubMod 1.5.10.3 | www.virtualdub-fr.org || (build 2550/release)
Библиотека кодирования : VirtualDubMod build 2550/release

Видео
Идентификатор : 0
Формат : MPEG-4 Visual
Профиль формата : Advanced Simple@L5
Параметр BVOP формата : 1
Параметр QPel формата : Нет
Параметр GMC формата : Без точки перехода
Параметр матрицы формата : Выборочная
Идентификатор кодека : XVID
Идентификатор кодека/Подсказка : XviD
Продолжительность : 1 ч. 30 м.
Битрейт : 1908 Кбит/сек
Ширина : 704 пикселя
Высота : 528 пикселей
Соотношение сторон : 4:3
Частота кадров : 25,000 кадров/сек
Цветовое пространство : YUV
Субдискретизация насыщенности : 4:2:0
Битовая глубина : 8 бит
Тип развёртки : Прогрессивная
Метод сжатия : С потерями
Бит/(Пиксели*Кадры) : 0.205
Размер потока : 1,21 Гбайт (83%)
Библиотека кодирования : XviD 65

Аудио
Идентификатор : 1
Формат : AC-3
Формат/Информация : Audio Coding 3
Расширение режима : CM (complete main)
Параметр Endianness формата : Big
Идентификатор кодека : 2000
Продолжительность : 1 ч. 30 м.
Вид битрейта : Постоянный
Битрейт : 384 Кбит/сек
Каналы : 6 каналов
Расположение каналов : Front: L C R, Side: L R, LFE
Частота : 48,0 КГц
Битовая глубина : 16 бит
Метод сжатия : С потерями
Размер потока : 249 Мбайт (17%)
Выравнивание : Разделение по промежуткам
Продолжительность промежутка : 40 мс. (1,00 видеокадр)
Время предзагрузки промежутка : 500 мс.



Скачать Удар.из.космоса.Tycus.(Джон.Путч).[1998.фантастика.боевик.приключения.DVDRip].[AVO.(Ю.Сербин)].torrent без регистрации
Золото ЗОЛОТАЯ РАЗДАЧА! СКАЧАННОЕ НЕ ЗАСЧИТЫВАЕТСЯ! Золото
Дата: Зарегистрирован   [ Тип: внутренний ] Как тут cкачать?
MAGNET ссылка
MAGNET ссылка


Скачать .torrent

15 KB

Статус: проверено DHT
Скачан: торрент - 112 раз, раздача полностью - 13 раз
Размер: 1,46 GB
Оценка:  - (Голосов: 0)
Поблагодарили: 3
Поделиться ссылкой на эту раздачу с друзьями:
В контактеFacebookОдноклассникиTwitterLivejournalМой МирLiveinternet
 

 
Показать сообщения:    


Вы не можете начинать темы
Вы не можете отвечать на сообщения
Вы не можете редактировать свои сообщения
Вы не можете удалять свои сообщения
Вы не можете голосовать в опросах
Вы не можете прикреплять файлы к сообщениям
Вы можете скачивать файлы