Loading...
Error

Скачать Странные супруги / Strange Bedfellows (Мелвин Фрэнк) [1965, комедия, DVDRip-AVC] [VO]+[Оригинал] торрент без регистрации

 
Статистика раздачи
Размер:  1,45 GB   |    Скачан:  103 раза
Сидов:  1  [  0 KB/s  ]  
 
Автор Сообщение

Marsianka

[] 

Страна: США
Жанр: комедия
Год выпуска: 1965
Продолжительность: 01:38:52
Перевод: Одноголосый (Алексей Яковлев) + Оригинальный
Режиссер: Мелвин Фрэнк / Melvin Frank
В ролях: Рок Хадсон (Carter Harrison), Джина Лоллобриджида (Toni Vincente), Гиг Янг (Richard Bramwell), Эдвард Джадд (Harry Jones), Ховард Ст. Джон (Julius L. Stevens), Дейв Кинг (Toni's Taxi Driver), Пегги Ри (Mavis Masters), Джозеф Сирола (Petracini), Нэнси Калп (Aggressive Woman), Люси Ландау (Jolly Woman), Бернард Фокс (Policeman), Эдит Этуотер (Mrs. Stevens)
Описание: Действие развивается в Лондоне, симпатичный американец знакомится с художницей итальянкой Тони, моментально влюбившись друг в друга пара по быстрому оформляет отношения но буквально на следующее утро оказывается что они не совпадают ни по одному вопросу. Следует бурный разрыв в стиле итальянского темперамента героини. Следующая встреча происходит спустя семь лет, когда герои решают наконец оформить официальный развод, однако ситуация немного изменилась и герою для продвижения по службе необходимо состоять в браке, вот тут он и начинает использовать и применять на своей страстной супруге фирменные уловки и хитрости.






Качество: DVDRip ( palmeiras / DVD5[Custom])
Контейнер: MKV

Видео: AVC, 720x460 @ 853x460 (1.854), 1713 kbps, 23.976 fps, 0.216 bpp
Аудио 1: русский / AC3 / 2.0 / 48 kHz / 192 kbps
Аудио 2: английский / AC3 / 2.0 / 48 kHz / 192 kbps
Навигация по главам: есть

General
Unique ID : 232893203351967721160089039220044572741 (0xAF35997374F57F6BA974398387F5A845)
Complete name : C:TorrentSuprugi.DVDRipAVC.mkv
Format : Matroska
Format version : Version 2
File size : 1.45 GiB
Duration : 1h 38mn
Overall bit rate : 2 099 Kbps
Movie name : = Странные супруги / Strange Bedfellows DVDRip by SC Kosmos =
Encoded date : UTC 2013-01-18 11:08:20
Writing application : mkvmerge v3.3.0 ('Language') gebaut am Mar 24 2010 14:59:24
Writing library : libebml v0.8.0 + libmatroska v0.9.0

Video
ID : 1
Format : AVC
Format/Info : Advanced Video Codec
Format profile : High@L4.1
Format settings, CABAC : Yes
Format settings, ReFrames : 14 frames
Codec ID : V_MPEG4/ISO/AVC
Duration : 1h 38mn
Bit rate : 1 713 Kbps
Width : 720 pixels
Height : 460 pixels
Display aspect ratio : 1.854
Original display aspect ratio : 1.855
Frame rate : 23.976 fps
Color space : YUV
Chroma subsampling : 4:2:0
Bit depth : 8 bits
Scan type : Progressive
Bits/(Pixel*Frame) : 0.216
Stream size : 1.16 GiB (80%)
Title : Странные супруги / Strange Bedfellows DVDRip by SC Kosmos
Writing library : x264 core 129 r2245 bc13772
Encoding settings : cabac=1 / ref=14 / deblock=1:-2:-2 / analyse=0x3:0x112 / me=umh / subme=11 / psy=1 / psy_rd=1.00:0.15 / mixed_ref=1 / me_range=32 / chroma_me=1 / trellis=2 / 8x8dct=1 / cqm=0 / deadzone=21,11 / fast_pskip=1 / chroma_qp_offset=-3 / threads=12 / lookahead_threads=2 / sliced_threads=0 / nr=0 / decimate=1 / interlaced=0 / bluray_compat=0 / constrained_intra=0 / bframes=10 / b_pyramid=2 / b_adapt=1 / b_bias=0 / direct=3 / weightb=1 / open_gop=0 / weightp=1 / keyint=230 / keyint_min=23 / scenecut=40 / intra_refresh=0 / rc=2pass / mbtree=0 / bitrate=1713 / ratetol=1.0 / qcomp=0.60 / qpmin=0 / qpmax=69 / qpstep=4 / cplxblur=20.0 / qblur=0.5 / ip_ratio=1.40 / pb_ratio=1.30 / aq=1:1.00
Language : English
Default : No
Forced : No
Color primaries : BT.470-6 System B, BT.470-6 System G, BT.601-6 625, BT.1358 625, BT.1700 625 PAL, BT.1700 625 SECAM
Transfer characteristics : BT.470-6 System B, BT.470-6 System G
Matrix coefficients : BT.470-6 System B, BT.470-6 System G, BT.601-6 625, BT.1358 625, BT.1700 625 PAL, BT.1700 625 SECAM, IEC 61966-2-4 601

Audio #1
ID : 2
Format : AC-3
Format/Info : Audio Coding 3
Mode extension : CM (complete main)
Codec ID : A_AC3
Duration : 1h 38mn
Bit rate mode : Constant
Bit rate : 192 Kbps
Channel(s) : 2 channels
Channel positions : Front: L R
Sampling rate : 48.0 KHz
Bit depth : 16 bits
Compression mode : Lossy
Stream size : 136 MiB (9%)
Title : VO (А. Яковлев)
Language : Russian
Default : Yes
Forced : No

Audio #2
ID : 3
Format : AC-3
Format/Info : Audio Coding 3
Mode extension : CM (complete main)
Codec ID : A_AC3
Duration : 1h 38mn
Bit rate mode : Constant
Bit rate : 192 Kbps
Channel(s) : 2 channels
Channel positions : Front: L R
Sampling rate : 48.0 KHz
Bit depth : 16 bits
Compression mode : Lossy
Stream size : 136 MiB (9%)
Language : English
Default : No
Forced : No

Menu
00:00:00.000 : en:Chapter 01
00:04:48.834 : en:Chapter 02
00:06:18.834 : en:Chapter 03
00:09:56.668 : en:Chapter 04
00:14:55.835 : en:Chapter 05
00:24:09.835 : en:Chapter 06
00:31:14.669 : en:Chapter 07
00:34:48.669 : en:Chapter 08
00:42:49.169 : en:Chapter 09
00:52:09.003 : en:Chapter 10
00:54:46.337 : en:Chapter 11
01:05:27.171 : en:Chapter 12
01:13:58.338 : en:Chapter 13
01:19:33.838 : en:Chapter 14
01:20:47.172 : en:Chapter 15
01:31:30.339 : en:Chapter 16
01:37:25.173 : en:Chapter 17
01:38:30.974 : en:Chapter 18
01:38:45.608 : en:Chapter 19

Семпл



Скачать Странные.супруги.Strange.Bedfellows.(Мелвин.Фрэнк).[1965.комедия.DVDRip-AVC].[VO]+[Оригинал].torrent без регистрации
Золото ЗОЛОТАЯ РАЗДАЧА! СКАЧАННОЕ НЕ ЗАСЧИТЫВАЕТСЯ! Золото
Дата: Зарегистрирован   [ Тип: внутренний ] Как тут cкачать?
MAGNET ссылка
MAGNET ссылка


Скачать .torrent

15 KB

Статус: проверено DHT
Скачан: торрент - 103 раз, раздача полностью - 3 раз
Размер: 1,45 GB
Оценка:  5 (Голосов: 1)
Поблагодарили: 1
Поделиться ссылкой на эту раздачу с друзьями:
В контактеFacebookОдноклассникиTwitterLivejournalМой МирLiveinternet
 

 
Показать сообщения:    


Вы не можете начинать темы
Вы не можете отвечать на сообщения
Вы не можете редактировать свои сообщения
Вы не можете удалять свои сообщения
Вы не можете голосовать в опросах
Вы не можете прикреплять файлы к сообщениям
Вы можете скачивать файлы