Loading...
Error

Скачать Кости / Bones (сезон 08) (Иэн Тойнтон) [2012, драма, детектив, WEB-DLRip] [720p] [MVO (Baibako)] торрент без регистрации

 
Статистика раздачи
Размер:  35,01 GB   |    Скачан:  2573 раза
Сидов:  1  [  0 KB/s  ]  
 
Автор Сообщение

МихаНЕзатор

[] 

Название: Кости
Оригинальное название: Bones
Год выпуска: 2012
Жанр: драма, детектив
Режиссер: Иэн Тойнтон
В ролях: Эмили Дешанель, Дэвид Бореаназ, Микаэла Конлин, Тамара Тэйлор, Томас Джозеф Тайн, Джон Фрэнсис Дэйли и др.

Описание: Доктор Темперанс Бреннан, блестящий, но одинокий антрополог получает то, чего она меньше всего желала напарника. Бюро посылает ей амбициозного агента ФБР Сили Бута, чтобы помочь в расследовании нераскрытых дел путем изучения и идентификации костей давно пропавших людей.

Но давно умершие жертвы не единственное, с чем придется столкнуться Боунс, Буту и их команде, раскрывая преступления они часто сталкиваются с взяточничеством, коррупцией и местной разрозненностью.



Страна: США
Продолжительность: 10 x ~ 00:45:00
Перевод: Профессиональный (многоголосый, закадровый) - Baibako
Субтитры: Нет

Перевод: Lub_a
Озвучка: Лира Грим, Светлана Доманова, Татьяна Оболевич, Руслан Иванов и Алексей Кузнецов
Монтаж: Vitall Digitall
Обложка: tvblog

Качество: WEB-DLRip 720p
Формат: МКV
Видео: MPEG-4 AVC, ~ 3910 Кбит/с, 1280x718
Аудио rus: AC3, 6 ch, 384 Кбит/с
Аудио eng: AC3, 6 ch, 384 Кбит/с

Релиз от:

21.07.2013 г. торент обновлён, добавлена 23-24 серия, сезон полностью!

01. Будущее в прошлом / The Future in the Past
02. Партнеры в разводе / The Partners in the Divorce
03. Месиво в гараже / The Gunk in the Garage
04. Тигр в сказке / The Tiger In The Tale
05. Метод на грани безумия / Method to the Madness
06. Патриот в чистилище / The Patriot in Purgatory
07. Гуманоид в коконе / The Bod in the Pod
08. Шутка, но всерьез / The But in the Joke
09. Призрак в машине / Ghost in the Machine
10. Алмаз неограненый / The Diamond in the Rough
11. Археолог в коконе / The Archaeologist in the Cocoon
12. Труп над кроватью / The Corpse on the Canopy
13 The Twist In The Plot / Поворот сюжета
14. Кукла в Дерби / The Doll in the Derby
15. Выстрел в темноте / The Shot in the Dark
16. Друг в беде / The Friend in Need
17. Фантастический факт / The Fact in the Fiction
18. The Survivor in the Soap
19. The Doom in the Gloom
20. The Blood from the Stones
21. The Maiden in the Mushrooms
22. The Party in the Pants
23. Пафос в патогенах / The Pathos in the Pathogens
24. Секрет в осаде / The Secret in the Siege
Bones.s08e10.HD720p.WEB-DL.Rus-Eng.BaibaKo.tv.mkv
Format : Matroska
File size : 1.44 GiB
Duration : 43mn 16s
Overall bit rate : 4 759 Kbps
Movie name : BaibaKo.tv presents - Кости 8х10 Алмаз неогранённый
Encoded date : UTC 2013-01-19 23:25:48
Writing application : mkvmerge v5.8.0 ('No Sleep / Pillow') built on Sep 2 2012 15:37:04
Writing library : libebml v1.2.3 + libmatroska v1.3.0

Video
ID : 1
Format : AVC
Format/Info : Advanced Video Codec
Format profile : High@L3.1
Format settings, CABAC : No
Format settings, ReFrames : 2 frames
Muxing mode : Container profile=Unknown@3.1
Codec ID : V_MPEG4/ISO/AVC
Duration : 43mn 14s
Bit rate : 3 896 Kbps
Width : 1 280 pixels
Height : 718 pixels
Display aspect ratio : 16:9
Frame rate : 23.976 fps
Resolution : 24 bits
Colorimetry : 4:2:0
Scan type : Progressive
Bits/(Pixel*Frame) : 0.177
Stream size : 1.18 GiB (82%)
Color primaries : BT.709-5, BT.1361, IEC 61966-2-4, SMPTE RP177
Transfer characteristics : BT.709-5, BT.1361
Matrix coefficients : BT.709-5, BT.1361, IEC 61966-2-4 709, SMPTE RP177

Audio #1
ID : 2
Format : AC-3
Format/Info : Audio Coding 3
Codec ID : A_AC3
Duration : 43mn 16s
Bit rate mode : Constant
Bit rate : 384 Kbps
Channel(s) : 6 channels
Channel positions : Front: L C R, Surround: L R, LFE
Sampling rate : 48.0 KHz
Stream size : 119 MiB (8%)
Title : Rus BaibaKo.tv DD5.1
Language : Russian

Audio #2
ID : 3
Format : AC-3
Format/Info : Audio Coding 3
Codec ID : A_AC3
Duration : 43mn 16s
Bit rate mode : Constant
Bit rate : 384 Kbps
Channel(s) : 6 channels
Channel positions : Front: L C R, Surround: L R, LFE
Sampling rate : 48.0 KHz
Video delay : 6ms
Stream size : 119 MiB (8%)
Title : Eng DD5.1



Скачать Кости.Bones.(сезон.08).(Иэн.Тойнтон).[2012.драма.детектив.WEB-DLRip].[720p].[MVO.(Baibako)].torrent без регистрации
Золото ЗОЛОТАЯ РАЗДАЧА! СКАЧАННОЕ НЕ ЗАСЧИТЫВАЕТСЯ! Золото
Дата: Зарегистрирован   [ Тип: внутренний ] Как тут cкачать?
MAGNET ссылка
MAGNET ссылка


Скачать .torrent

177 KB

Статус: проверено DHT
Скачан: торрент - 2573 раз, раздача полностью - 3 раз
Размер: 35,01 GB
Оценка:  - (Голосов: 0)
Поблагодарили: 0
Поделиться ссылкой на эту раздачу с друзьями:
В контактеFacebookОдноклассникиTwitterLivejournalМой МирLiveinternet
 

 

МихаНЕзатор

[] 

Раздача обновлена
 
Показать сообщения:    


Вы не можете начинать темы
Вы не можете отвечать на сообщения
Вы не можете редактировать свои сообщения
Вы не можете удалять свои сообщения
Вы не можете голосовать в опросах
Вы не можете прикреплять файлы к сообщениям
Вы можете скачивать файлы