Loading...
Error

Скачать Желтый дьявол / Der Schut (Роберт Сьодмак) [1964, приключения, HDRip] [MVO] торрент без регистрации

 
Статистика раздачи
Размер:  746 MB   |    Скачан:  117 раз
Сидов:  1  [  0 KB/s  ]  
 
Автор Сообщение

Marsianka

[] 

Информация о фильме
Название: Желтый дьявол
Оригинальное название: Der Schut
Год выхода: 1964
Жанр: приключения
Режиссер: Роберт Сьодмак / Robert Siodmak
В ролях: Лекс Баркер, Мари Верзини, Ральф Вольтер, Рик Батталья, Дитер Борше, Крис Хоуланд, Марианна Хольд, Фридрих фон Ледебур, Душан Яничиевич, Ренато Бальдини, Йован-Бурдуш Йаничиевич, Никола Попович, Ева Рас, Живоин Денич, Пьер Фромон, Ольга Бражевич, Мария Грация Франчия, Александр Стойкович, Душан Антониевич, Кристя Бериша, Инге Ландгут, Душан Петрович, Йовица Волинович, Янез Врховец

О фильме:
Желтый дьявол самый жестокий злодей на Балканах терроризирует местных жителей. Путешествуя по горам, любитель приключений Кара Бен Немши, его друг Хадши Халиф Омар и английский лорд Линдсей оказываются на территории Желтого дьявола. Наслышанные о его преступлениях, они решают пощекотать себе нервы.



Страна: Франция, Италия, Германия (ФРГ), Югославия
Продолжительность: 01:55:31
Перевод: Профессиональный (многоголосый закадровый)
Файл
Кодек: XviD
Качество: HDRip
Видео: 640x272 (2.35:1), 23.976 fps, 766 Kbps, 0.183 Bits/(Pixel*Frame)
Звук: MP3, 48 KHz, 128 Kbps, 2 channels

Семпл
General
Complete name : D:Zholtyj.d'yavol.1964.HDRip.XviD.746mb.avi
Format : AVI
Format/Info : Audio Video Interleave
File size : 746 MiB
Duration : 1h 55mn
Overall bit rate : 903 Kbps
Writing application : VirtualDubMod 1.5.10.2 (build 2540/release)
Writing library : VirtualDubMod build 2540/release

Video
ID : 0
Format : MPEG-4 Visual
Format profile : Advanced Simple@L5
Format settings, BVOP : 1
Format settings, QPel : No
Format settings, GMC : No warppoints
Format settings, Matrix : Custom
Codec ID : XVID
Codec ID/Hint : XviD
Duration : 1h 55mn
Bit rate : 766 Kbps
Width : 640 pixels
Height : 272 pixels
Display aspect ratio : 2.35:1
Frame rate : 23.976 fps
Color space : YUV
Chroma subsampling : 4:2:0
Bit depth : 8 bits
Scan type : Progressive
Compression mode : Lossy
Bits/(Pixel*Frame) : 0.183
Stream size : 633 MiB (85%)
Writing library : XviD 1.2.1 (UTC 2008-12-04)

Audio
ID : 1
Format : MPEG Audio
Format version : Version 1
Format profile : Layer 3
Mode : Joint stereo
Mode extension : MS Stereo
Codec ID : 55
Codec ID/Hint : MP3
Duration : 1h 55mn
Bit rate mode : Constant
Bit rate : 128 Kbps
Channel(s) : 2 channels
Sampling rate : 48.0 KHz
Compression mode : Lossy
Stream size : 106 MiB (14%)
Alignment : Aligned on interleaves
Interleave, duration : 42 ms (1.00 video frame)
Interleave, preload duration : 504 ms











Скачать Желтый.дьявол.Der.Schut.(Роберт.Сьодмак).[1964.приключения.HDRip].[MVO].torrent без регистрации
Золото ЗОЛОТАЯ РАЗДАЧА! СКАЧАННОЕ НЕ ЗАСЧИТЫВАЕТСЯ! Золото
Дата: Зарегистрирован   [ Тип: внутренний ] Как тут cкачать?
MAGNET ссылка
MAGNET ссылка


Скачать .torrent

15 KB

Статус: проверено DHT
Скачан: торрент - 117 раз, раздача полностью - 9 раз
Размер: 746 MB
Оценка:  - (Голосов: 0)
Поблагодарили: 0
Поделиться ссылкой на эту раздачу с друзьями:
В контактеFacebookОдноклассникиTwitterLivejournalМой МирLiveinternet
 

 
Показать сообщения:    


Вы не можете начинать темы
Вы не можете отвечать на сообщения
Вы не можете редактировать свои сообщения
Вы не можете удалять свои сообщения
Вы не можете голосовать в опросах
Вы не можете прикреплять файлы к сообщениям
Вы можете скачивать файлы