Loading...
Error

Скачать Красные башмачки / Boon-hong-sin (Ким Йонг-гьюн) [2005, драма, ужасы, мистика, DVDRip-AVC] [Расширенная версия] [AVO]+[Sub] торрент без регистрации

 
Статистика раздачи
Размер:  2,19 GB   |    Скачан:  117 раз
Сидов:  1  [  0 KB/s  ]  
 
Автор Сообщение

Marsianka

[] 

Оригинальное название: Boon-hong-sin
Русское название: Красные башмачки
Жанр: драма, ужасы, мистика
Год выхода: 2005
Режиссер: Ким Йонг-гьюн
В ролях: Ким Хие-со, Ким Сун-со, Го Су-Хи

Описание: В ожидании своей подруги девушка случайно замечает на перроне пару красных женских туфель. И поскольку хозяйки рядом не наблюдается, она решает взять их себе. Однако, откуда ни возьмись появляется её долгожданная подруга и окинув беглым взглядом находку, тут же заявляет на неё свои права. Они ссорятся и подруга удаляется со своей добычей под отчаянные крики поверженной. Но первый же вечер в новых туфлях, стал для победительницы роковым. Она погибает при таинственных обстоятельствах в переходе метро, где её истёкшее кровью тело, с отрубленными словно лезвием бритвы ногами и было обнаружено полицией...



Качество: DVDRip-AVC
Видео: 720x304 (2.35:1), 23.976 fps, MPEG4/ISO/AVC, High@L4.1, 999 Kbps, 0.381 bit/pixel
Аудио 1 (русский): 48 kHz, AC-3, 6 ch, 448 Kbps
Аудио 2 (корейский): 48 kHz, AC-3, 6 ch, 448 Kbps
Субтитры: Английские

Продолжительность: 01:48:12
Перевод: Авторский (одноголосый)@PD
General
Complete name : H:DVDRip КиноКрасные башмачки (Расширенная версия) - The Red Shoes EAV (2005).mkv
Format : Matroska
File size : 2.19 GiB
Duration : 1h 48mn
Overall bit rate : 2 896 Kbps
Encoded date : UTC 2013-01-20 13:17:38
Writing application : mkvmerge v5.7.0 ('The Whirlwind') built on Jul 10 2012 18:39:26
Writing library : libebml v1.2.3 + libmatroska v1.3.0

Video
ID : 1
Format : AVC
Format/Info : Advanced Video Codec
Format profile : High@L4.1
Format settings, CABAC : Yes
Format settings, ReFrames : 5 frames
Codec ID : V_MPEG4/ISO/AVC
Duration : 1h 48mn
Bit rate : 1 999 Kbps
Width : 720 pixels
Height : 304 pixels
Display aspect ratio : 2.35:1
Frame rate : 23.976 fps
Color space : YUV
Chroma subsampling : 4:2:0
Bit depth : 8 bits
Scan type : Progressive
Bits/(Pixel*Frame) : 0.381
Stream size : 1.47 GiB (67%)
Writing library : x264 core 129 r2230 1cffe9f
Encoding settings : cabac=1 / ref=5 / deblock=1:-3:-3 / analyse=0x3:0x113 / me=umh / subme=7 / psy=1 / psy_rd=1.00:0.15 / mixed_ref=1 / me_range=16 / chroma_me=1 / trellis=2 / 8x8dct=1 / cqm=0 / deadzone=21,11 / fast_pskip=1 / chroma_qp_offset=-6 / threads=3 / lookahead_threads=1 / sliced_threads=0 / nr=0 / decimate=1 / interlaced=0 / bluray_compat=0 / constrained_intra=0 / bframes=3 / b_pyramid=2 / b_adapt=2 / b_bias=0 / direct=1 / weightb=1 / open_gop=0 / weightp=2 / keyint=240 / keyint_min=23 / scenecut=40 / intra_refresh=0 / rc=2pass / mbtree=0 / bitrate=1999 / ratetol=1.0 / qcomp=0.60 / qpmin=0 / qpmax=69 / qpstep=4 / cplxblur=20.0 / qblur=0.5 / ip_ratio=1.40 / pb_ratio=1.30 / aq=1:1.00

Audio #1
ID : 2
Format : AC-3
Format/Info : Audio Coding 3
Mode extension : CM (complete main)
Codec ID : A_AC3
Duration : 1h 48mn
Bit rate mode : Constant
Bit rate : 448 Kbps
Channel(s) : 6 channels
Channel positions : Front: L C R, Side: L R, LFE
Sampling rate : 48.0 KHz
Bit depth : 16 bits
Stream size : 347 MiB (15%)
Title : Авторский перевод @PD
Language : Russian

Audio #2
ID : 3
Format : AC-3
Format/Info : Audio Coding 3
Mode extension : CM (complete main)
Codec ID : A_AC3
Duration : 1h 48mn
Bit rate mode : Constant
Bit rate : 448 Kbps
Channel(s) : 6 channels
Channel positions : Front: L C R, Side: L R, LFE
Sampling rate : 48.0 KHz
Bit depth : 16 bits
Stream size : 347 MiB (15%)
Language : Korean

Text
ID : 4
Format : UTF-8
Codec ID : S_TEXT/UTF8
Codec ID/Info : UTF-8 Plain Text
Language : English

Menu
00:00:00.000 : en:Chapter 01
00:06:24.834 : en:Chapter 02
00:14:12.834 : en:Chapter 03
00:18:40.934 : en:Chapter 04
00:24:03.768 : en:Chapter 05
00:29:44.469 : en:Chapter 06
00:38:53.703 : en:Chapter 07
00:48:43.571 : en:Chapter 08
00:55:08.138 : en:Chapter 09
01:02:30.138 : en:Chapter 10
01:15:11.139 : en:Chapter 11
01:28:10.007 : en:Chapter 12
01:37:09.441 : en:Chapter 13
01:43:54.608 : en:Chapter 14



Скачать Красные.башмачки.Boon-hong-sin.(Ким.Йонг-гьюн).[2005.драма.ужасы.мистика.DVDRip-AVC].[Расширенная.версия].[AVO]+[Sub].torrent без регистрации
Золото ЗОЛОТАЯ РАЗДАЧА! СКАЧАННОЕ НЕ ЗАСЧИТЫВАЕТСЯ! Золото
Дата: Зарегистрирован   [ Тип: внутренний ] Как тут cкачать?
MAGNET ссылка
MAGNET ссылка


Скачать .torrent

11 KB

Статус: проверено DHT
Скачан: торрент - 117 раз, раздача полностью - 3 раз
Размер: 2,19 GB
Оценка:  - (Голосов: 0)
Поблагодарили: 0
Поделиться ссылкой на эту раздачу с друзьями:
В контактеFacebookОдноклассникиTwitterLivejournalМой МирLiveinternet
 

 
Показать сообщения:    


Вы не можете начинать темы
Вы не можете отвечать на сообщения
Вы не можете редактировать свои сообщения
Вы не можете удалять свои сообщения
Вы не можете голосовать в опросах
Вы не можете прикреплять файлы к сообщениям
Вы можете скачивать файлы