Loading...
Error

Скачать Убийца / Point of No Return (Джон Бэдэм) [1993, боевик, триллер, криминал, HDRip] [Dub] торрент без регистрации

 
Статистика раздачи
Размер:  746 MB   |    Скачан:  118 раз
Сидов:  1  [  0 KB/s  ]  
 
Автор Сообщение

Marsianka

[] 

Информация о фильме
Название: Убийца
Оригинальное название: Point of No Return
Год выхода: 1993
Жанр: боевик, триллер, криминал
Режиссер: Джон Бэдэм / John Badham
В ролях: Бриджит Фонда, Гэбриел Бирн, Дермот Малруни, Мигель Феррер, Энн Бэнкрофт, Оливия дАбо, Ричард Романус, Харви Кейтель, Лоррейн Туссен, Джеффри Льюис

О фильме:
Жестокая, напичканная наркотиками, она была обвинена в убийстве и приговорена к смерти. Но секретная государственная служба превратила эту женщину из обитательницы камеры смертников в убийцу-профессионала, живущего взаймы



Страна: США
Продолжительность: 01:48:20
Перевод: Профессиональный (дублированный)
Файл
Кодек: XviD
Качество: HDRip
Видео: 688x288 (2.40:1), 23.976 fps, 825 Kbps, 0.174 Bits/(Pixel*Frame)
Звук: MP3, 48 KHz, 128 Kbps, 2 channels

Семпл
General
Complete name : D:Ubiyca.1993.HDRip.XviD.746mb.avi
Format : AVI
Format/Info : Audio Video Interleave
File size : 746 MiB
Duration : 1h 48mn
Overall bit rate : 962 Kbps
Writing application : VirtualDubMod 1.5.10.2 (build 2540/release)
Writing library : VirtualDubMod build 2540/release

Video
ID : 0
Format : MPEG-4 Visual
Format profile : Advanced Simple@L5
Format settings, BVOP : 1
Format settings, QPel : No
Format settings, GMC : No warppoints
Format settings, Matrix : Custom
Codec ID : XVID
Codec ID/Hint : XviD
Duration : 1h 48mn
Bit rate : 825 Kbps
Width : 688 pixels
Height : 288 pixels
Display aspect ratio : 2.40:1
Frame rate : 23.976 fps
Color space : YUV
Chroma subsampling : 4:2:0
Bit depth : 8 bits
Scan type : Progressive
Compression mode : Lossy
Bits/(Pixel*Frame) : 0.174
Stream size : 639 MiB (86%)
Writing library : XviD 1.2.1 (UTC 2008-12-04)

Audio
ID : 1
Format : MPEG Audio
Format version : Version 1
Format profile : Layer 3
Mode : Joint stereo
Codec ID : 55
Codec ID/Hint : MP3
Duration : 1h 48mn
Bit rate mode : Constant
Bit rate : 128 Kbps
Channel(s) : 2 channels
Sampling rate : 48.0 KHz
Compression mode : Lossy
Stream size : 99.2 MiB (13%)
Alignment : Aligned on interleaves
Interleave, duration : 42 ms (1.00 video frame)
Interleave, preload duration : 504 ms











Скачать Убийца.Point.of.No.Return.(Джон.Бэдэм).[1993.боевик.триллер.криминал.HDRip].[Dub].torrent без регистрации
Золото ЗОЛОТАЯ РАЗДАЧА! СКАЧАННОЕ НЕ ЗАСЧИТЫВАЕТСЯ! Золото
Дата: Зарегистрирован   [ Тип: внутренний ] Как тут cкачать?
MAGNET ссылка
MAGNET ссылка


Скачать .torrent

15 KB

Статус: проверено DHT
Скачан: торрент - 118 раз, раздача полностью - 19 раз
Размер: 746 MB
Оценка:  - (Голосов: 0)
Поблагодарили: 0
Поделиться ссылкой на эту раздачу с друзьями:
В контактеFacebookОдноклассникиTwitterLivejournalМой МирLiveinternet
 

 
Показать сообщения:    


Вы не можете начинать темы
Вы не можете отвечать на сообщения
Вы не можете редактировать свои сообщения
Вы не можете удалять свои сообщения
Вы не можете голосовать в опросах
Вы не можете прикреплять файлы к сообщениям
Вы можете скачивать файлы