Loading...
Error

Скачать Знахарь / Znachor (Ежи Гоффман) [1982, драма, DVDRip] [Dub] (Советский дубляж) (Ремастированное качество) торрент без регистрации

 
Статистика раздачи
Размер:  1,45 GB   |    Скачан:  185 раз
Сидов:  1  [  0 KB/s  ]  
 
Автор Сообщение

alex65

[] 


Знахарь / Znachor


Год выпуска: 1982
Выпущено: Польша
Жанр: драма
Продолжительность: 02:06:47
Перевод: Профессиональный (полное дублирование) [Советский дубляж]
Субтитры: нет

Режиссер: Ежи Гоффман

В ролях: Ежи Биньчицкий, Анна Дымна, Томаш Стокингер, Бернард Лядыш, Божена Дыкель, Артур Барцис

Описание: С гениальным хирургом Рафалом Вильчуром происходит трагедия, изменившая всю его жизнь. Уходят жена и дочь, в тот же день он оказывается на улице без денег и документов. Ему приходится пережить несколько лет скитаний и горя. И все-таки судьба поворачивается к нему лицом.







Качество: DVDRip
Формат: AVI
Видео кодек: XviD
Аудио кодек: MP3
Видео: XVID, 688х416, 25,000 fps, 1500 kbps
Аудио: mp3, 48.0 KHz, 2 ch, 128 kbps
Дополнительно: Rip личный.


Формат : AVI
Формат/Информация : Audio Video Interleave
Размер файла : 1,45 Гбайт
Продолжительность : 2 ч. 6 м.
Общий поток : 1638 Кбит/сек
Программа кодирования : VirtualDubModRus 1.5.10.2 (build 2542/release)
Библиотека кодирования : VirtualDubMod build 2542/release

Видео
Идентификатор : 0
Формат : MPEG-4 Visual
Профиль формата : Advanced Simple@L5
Параметр BVOP формата : 2
Параметр QPel формата : Нет
Параметр GMC формата : Без точки перехода
Параметр матрицы формата : Default (H.263)
Режим смешивания : Сжатый битовый поток
Идентификатор кодека : XVID
Идентификатор кодека/Подсказка : XviD
Продолжительность : 2 ч. 6 м.
Битрейт : 1500 Кбит/сек
Ширина : 688 пикселей
Высота : 416 пикселей
Соотношение сторон : 1,654
Частота кадров : 25,000 кадров/сек
Цветовое пространство : YUV
Субдискретизация насыщенности : 4:2:0
Битовая глубина : 8 бит
Тип развёртки : Прогрессивная
Метод сжатия : С потерями
Бит/(Пиксели*Кадры) : 0.210
Размер потока : 1,33 Гбайт (92%)
Библиотека кодирования : XviD 1.2.1 (UTC 2008-12-04)

Аудио
Идентификатор : 1
Формат : MPEG Audio
Версия формата : Version 1
Профиль формата : Layer 3
Режим : Joint stereo
Расширение режима : MS Stereo
Идентификатор кодека : 55
Идентификатор кодека/Подсказка : MP3
Продолжительность : 2 ч. 6 м.
Вид битрейта : Постоянный
Битрейт : 128 Кбит/сек
Каналы : 2 канала
Частота : 48,0 КГц
Метод сжатия : С потерями
Размер потока : 116 Мбайт (8%)
Выравнивание : Соединение по промежуткам
Продолжительность промежутка : 40 мс. (1,00 видеокадр)
Время предзагрузки промежутка : 504 мс.
Библиотека кодирования : LAME3.99r
Настройки программы : -m j -V 4 -q 2 -lowpass 17 -b 128



Скачать Знахарь.Znachor.(Ежи.Гоффман).[1982.драма.DVDRip].[Dub].(Советский.дубляж).(Ремастированное.качество).torrent без регистрации
Золото ЗОЛОТАЯ РАЗДАЧА! СКАЧАННОЕ НЕ ЗАСЧИТЫВАЕТСЯ! Золото
Дата: Зарегистрирован   [ Тип: внутренний ] Как тут cкачать?
MAGNET ссылка
MAGNET ссылка


Скачать .torrent

15 KB

Статус: проверено
Скачан: торрент - 185 раз, раздача полностью - 435 раз
Размер: 1,45 GB
Оценка:  - (Голосов: 0)
Поблагодарили: 4
Поделиться ссылкой на эту раздачу с друзьями:
В контактеFacebookОдноклассникиTwitterLivejournalМой МирLiveinternet
 

 

МихаНЕзатор

[] 

В названии темы нет данных о переводе.
 

alex65

[] 

Скорость раздачи не более 80 кб\с (модем)
раздача с ~09:00 до 23:00
вот никак не думал что столько народу накинутся качать ai
 

Shara

[] 

alex65

Перекачаю к себе и помогу вам с раздачей.
 

alex65

[] 

Shara писал(а):

alex65

Перекачаю к себе и помогу вам с раздачей.
спасибо. завтра я думаю за полдня раздам хоть одному
 
Показать сообщения:    


Вы не можете начинать темы
Вы не можете отвечать на сообщения
Вы не можете редактировать свои сообщения
Вы не можете удалять свои сообщения
Вы не можете голосовать в опросах
Вы не можете прикреплять файлы к сообщениям
Вы можете скачивать файлы