Loading...
Error

Скачать Пустоши / Badlands (Терренс Малик) [1973, драма, криминал, триллер, мелодрама, HDTVRip-AVC] [MVO]+[VO]+[Оригинал]+[Sub] торрент без регистрации

 
Статистика раздачи
Размер:  2,25 GB   |    Скачан:  104 раза
Сидов:  1  [  0 KB/s  ]  
 
Автор Сообщение

Marsianka

[] 




Название: Пустоши
Оригинальное название: Badlands
Год выхода: 1973
Жанр: драма, криминал, триллер, мелодрама
Режиссер: Терренс Малик/Terrence Malick

В ролях: Мартин Шин/Martin Sheen, Сисси Спейсек/Sissy Spacek, Уоррен Оутс/Warren Oates, Рамон Биери/Ramon Bieri, Алан Винт/Alan Vint, Гари Литтлджон/Gary Littlejohn, Джон Картер/John Carter, Брайан Монтгомери/Bryan Montgomery и другие




В 1959 году юноша по имени Кит и его несовершеннолетняя подружка Холли пускаются в бега после убийства отца Холли, запрещавшего им встречаться.

Направляясь к пустошам Монтаны, парочка совершает на своем пути череду хладнокровных убийств.







Страна: США
Производитель: Warner Bros. Pictures
Продолжительность: 01:33:43
Перевод: Профессиональный (многоголосный, закадровый) / Любительский одноголосый (Петр Чайников) / Оригинал

General:
Format : Matroska
File size : 2.25 GiB
Duration : 1h 33mn
Overall bit rate : 3 433 Kbps
Encoded date : UTC 2010-04-14 08:26:01
Writing application : mkvmerge v3.3.0 ('Language') built on Mar 24 2010 14:59:24
Writing library : libebml v0.8.0 + libmatroska v0.9.0
Cover : Yes / Yes

Video:
ID : 1
Format : AVC
Format/Info : Advanced Video Codec
Format profile : High@L4.0
Format settings, CABAC : Yes
Format settings, ReFrames : 12 frames
Muxing mode : Container profile=Unknown@4.0
Codec ID : V_MPEG4/ISO/AVC
Duration : 1h 33mn
Bit rate : 2 597 Kbps
Width : 1 088 pixels
Height : 612 pixels
Display aspect ratio : 16:9
Frame rate : 23.976 fps
Resolution : 8 bits
Colorimetry : 4:2:0
Scan type : Progressive
Bits/(Pixel*Frame) : 0.163
Stream size : 1.70 GiB (76%)
Title : 1088x612 (16:9); 2663 Kbps; 23,976 fps; 0,170 bpp
Writing library : x264 core 93 r1538 bd72d46
Encoding settings : cabac=1 / ref=12 / deblock=1:-2:-1 / analyse=0x3:0x133 / me=umh / subme=10 / psy=1 / psy_rd=0.90:0.10 / mixed_ref=1 / me_range=24 / chroma_me=1 / trellis=2 / 8x8dct=1 / cqm=0 / deadzone=21,11 / fast_pskip=1 / chroma_qp_offset=-3 / threads=6 / sliced_threads=0 / nr=0 / decimate=1 / interlaced=0 / constrained_intra=0 / bframes=9 / b_pyramid=2 / b_adapt=2 / b_bias=0 / direct=3 / wpredb=1 / wpredp=2 / keyint=250 / keyint_min=25 / scenecut=40 / intra_refresh=0 / rc_lookahead=60 / rc=crf / mbtree=1 / crf=18.5 / qcomp=0.65 / qpmin=10 / qpmax=51 / qpstep=4 / ip_ratio=1.40 / aq=2:1.00 / zones=130640,134771,q=35
Language : English
Matrix coefficients : BT.709-5, BT.1361, IEC 61966-2-4 709, SMPTE RP177

Audio #1:
ID : 2
Format : AC-3
Format/Info : Audio Coding 3
Codec ID : A_AC3
Duration : 1h 33mn
Bit rate mode : Constant
Bit rate : 192 Kbps
Channel(s) : 2 channels
Channel positions : L R
Sampling rate : 48.0 KHz
Stream size : 129 MiB (6%)
Title : MVO
Language : Russian

Audio #2:
ID : 3
Format : AC-3
Format/Info : Audio Coding 3
Codec ID : A_AC3
Duration : 1h 33mn
Bit rate mode : Constant
Bit rate : 192 Kbps
Channel(s) : 2 channels
Channel positions : L R
Sampling rate : 48.0 KHz
Stream size : 129 MiB (6%)
Title : Петр Чайников
Language : Russian

Audio #3:
ID : 4
Format : AC-3
Format/Info : Audio Coding 3
Codec ID : A_AC3
Duration : 1h 33mn
Bit rate mode : Constant
Bit rate : 384 Kbps
Channel(s) : 6 channels
Channel positions : Front: L C R, Surround: L R, LFE
Sampling rate : 48.0 KHz
Stream size : 257 MiB (11%)
Title : Original
Language : English

Text #1:
ID : 5
Format : UTF-8
Codec ID : S_TEXT/UTF8
Codec ID/Info : UTF-8 Plain Text
Language : Russian

Text #2:
ID : 6
Format : UTF-8
Codec ID : S_TEXT/UTF8
Codec ID/Info : UTF-8 Plain Text
Language : English

Menu:
00:00:00.000 : en:1. Little did I realize
00:02:28.367 : en:2. Credits; Holly meets Kit
00:07:07.867 : en:3. Go for a ride?
00:10:06.401 : en:4. Grand love
00:15:09.901 : en:5. Dad disapproves
00:18:54.201 : en:6. What it sounds like
00:23:12.535 : en:7. For the record
00:28:04.869 : en:8. Gone in a blaze
00:30:11.536 : en:9. Their big marble hall
00:37:19.536 : en:10. Hunting the hunters
00:40:14.903 : en:11. Cato's place
00:48:17.903 : en:12. Couple in the cellar
00:50:49.604 : en:13. Out of the sun
00:52:32.405 : en:14. Like a Russian invasion
00:54:02.905 : en:15. The rich man's house
00:56:18.072 : en:16. Dreams and advice
00:58:39.072 : en:17. A visitor
01:01:12.940 : en:18. Our headlong way
01:04:31.741 : en:19. What direction?
01:09:25.241 : en:20. Headlight dance ( A Blossom Fell)
01:13:04.741 : en:21. Today's the day
01:16:28.041 : en:22. High-speed pursuit
01:20:49.041 : en:23. Marking the capture site
01:23:13.041 : en:24. Like James Dean
01:25:03.575 : en:25. Pieces of Kit
01:26:16.775 : en:26. Too bad about you dad
01:28:57.743 : en:27. Quite an individual
01:30:46.577 : en:28. End Credits
Качество видео: HDTVRip-AVC [Исходник HDTV 720p x264]
Формат видео: MKV
Видеокодек: AVC
Аудиокодек: AC3
Видео: 1088x612 (16:9), ~2597 kbps, 23.976 fps, x264, 0.163 bits/pixel
Аудио: #1 48.0 kHz, AC3, 2 ch, 192 kbps | MVO
Аудио: #2 48.0 kHz, AC3, 2 ch, 192 kbps | Петр Чайников
Аудио: #3 48.0 kHz, AC3, 6 ch, 384 kbps | Оригинал
Субтитры: английские (UTF-8), русские (UTF-8)




Скачать Пустоши.Badlands.(Терренс.Малик).[1973.драма.криминал.триллер.мелодрама.HDTVRip-AVC].[MVO]+[VO]+[Оригинал]+[Sub].torrent без регистрации
Золото ЗОЛОТАЯ РАЗДАЧА! СКАЧАННОЕ НЕ ЗАСЧИТЫВАЕТСЯ! Золото
Дата: Зарегистрирован   [ Тип: внутренний ] Как тут cкачать?
MAGNET ссылка
MAGNET ссылка


Скачать .torrent

45 KB

Статус: проверено DHT
Скачан: торрент - 104 раз, раздача полностью - 9 раз
Размер: 2,25 GB
Оценка:  - (Голосов: 0)
Поблагодарили: 0
Поделиться ссылкой на эту раздачу с друзьями:
В контактеFacebookОдноклассникиTwitterLivejournalМой МирLiveinternet
 

 
Показать сообщения:    


Вы не можете начинать темы
Вы не можете отвечать на сообщения
Вы не можете редактировать свои сообщения
Вы не можете удалять свои сообщения
Вы не можете голосовать в опросах
Вы не можете прикреплять файлы к сообщениям
Вы можете скачивать файлы