Loading...
Error

Скачать Последняя зима / The Last Winter (Ларри Фесенден) [2006, триллер, HDRip] [VO (Zamez)] торрент без регистрации

 
Статистика раздачи
Размер:  1,76 GB   |    Скачан:  153 раза
Сидов:  1  [  0 KB/s  ]  
 
Автор Сообщение

МихаНЕзатор

[] 

Последняя зима / The Last Winter (2006) HDRip




Страна: США, Исландия
Жанр: триллер
Год выпуска: 2006
Продолжительность: 01:41:31

Перевод: Любительский (одноголосый закадровый) zamez
Cубтитры: нет
Оригинальная аудиодорожка: английский - отдельно

Режиссер: Ларри Фесенден / Larry Fessenden

В ролях:
Рон Перлман ( Имя Розы, Враг у ворот, Хеллбой)
Джеймс ЛеГро, Конни Бриттон, Зэк Гилфорд, Кевин Корригэн, Джэми Харольд, Пэто Хофман,
Джоан Шенендоух, Ларри Фесенден, Оскар Миллер

Описание: Нефтяная компания направляет на Северную Аляску группу для наладки оборудования.
Раньше другая компания уже проводила здесь пробные бурения,но по непонятным причинам свернула работы,оставив на их месте странный металлический бокс.
Очень скоро все понимают, что в лагере творится неладное и для выживания придётся приложить все усилия.

Доп. информация:

Перевод: veretskiy
Закадровый текст читает: zamez


Качество видео: HDRip(Исх. BD720)
Формат видео: AVI
Видео: 720x304 (2.37:1), 25 fps, XviD build 50 ~1697 kbps avg, 0.31 bit/pixel
Аудио: 48 kHz, AC3 Dolby Digital, 3/2 (L,C,R,l,r) + LFE ch, ~448 kbps RUS
Аудио: 48 kHz, AC3 Dolby Digital, 3/2 (L,C,R,l,r) + LFE ch, ~448 kbps ENG


File: The.Last.Winter.chopper887.avi
Title: The.Last.Winter.chopper887
Author: chopper887
Filesize: 1493.58 Mb ( 1 566 136 320 bytes )
Play length: 01:36:53.720 (145343 frames)
Subtitles: Not Present
Video: 720x304 (2.37:1), 25 fps, XviD build 50 ~1697 kbps avg, 0.31 bit/pixel
Audio: 48 kHz, AC3 Dolby Digital, 3/2 (L,C,R,l,r) + LFE ch, ~448 kbps

General
Complete name : D:The.Last.Winter.chopper887The.Last.Winter.chopper887.avi
Format : AVI
Format/Info : Audio Video Interleave
File size : 1.46 GiB
Duration : 1h 36mn
Overall bit rate : 2 155 Kbps
Movie name : The.Last.Winter.chopper887
Director : chopper887
Writing application : VirtualDubMod 1.5.10.3 | www.virtualdub-fr.org || (build 2550/release)

Video
ID : 0
Format : MPEG-4 Visual
Format profile : Advanced Simple@L5
Format settings, BVOP : Yes
Format settings, QPel : No
Format settings, GMC : No warppoints
Format settings, Matrix : Custom
Codec ID : XVID
Codec ID/Hint : XviD
Duration : 1h 36mn
Bit rate : 1 697 Kbps
Width : 720 pixels
Height : 304 pixels
Display aspect ratio : 2.35:1
Frame rate : 25.000 fps
Color space : YUV
Chroma subsampling : 4:2:0
Bit depth : 8 bits
Scan type : Progressive
Compression mode : Lossy
Bits/(Pixel*Frame) : 0.310
Stream size : 1.15 GiB (79%)
Writing library : XviD 1.2.1 (UTC 2008-12-04)

Audio
ID : 1
Format : AC-3
Format/Info : Audio Coding 3
Mode extension : CM (complete main)
Codec ID : 2000
Duration : 1h 36mn
Bit rate mode : Constant
Bit rate : 448 Kbps
Channel(s) : 6 channels
Channel positions : Front: L C R, Side: L R, LFE
Sampling rate : 48.0 KHz
Bit depth : 16 bits
Compression mode : Lossy
Stream size : 310 MiB (21%)
Alignment : Split accross interleaves
Interleave, duration : 40 ms (1.00 video frame)
Interleave, preload duration : 500 ms



Скачать Последняя.зима.The.Last.Winter.(Ларри.Фесенден).[2006.триллер.HDRip].[VO.(Zamez)].torrent без регистрации
Золото ЗОЛОТАЯ РАЗДАЧА! СКАЧАННОЕ НЕ ЗАСЧИТЫВАЕТСЯ! Золото
Дата: Зарегистрирован   [ Тип: внутренний ] Как тут cкачать?
MAGNET ссылка
MAGNET ссылка


Скачать .torrent

18 KB

Статус: проверено DHT
Скачан: торрент - 153 раз, раздача полностью - 17 раз
Размер: 1,76 GB
Оценка:  - (Голосов: 0)
Поблагодарили: 0
Поделиться ссылкой на эту раздачу с друзьями:
В контактеFacebookОдноклассникиTwitterLivejournalМой МирLiveinternet
 

 
Показать сообщения:    


Вы не можете начинать темы
Вы не можете отвечать на сообщения
Вы не можете редактировать свои сообщения
Вы не можете удалять свои сообщения
Вы не можете голосовать в опросах
Вы не можете прикреплять файлы к сообщениям
Вы можете скачивать файлы