Loading...
Error

Скачать Чужаки в монастыре Шаолинь / Sam chong Siu Lam (Чиа Тэнг) [1983, боевые искусства, DVDRip] [MVO] торрент без регистрации

 
Статистика раздачи
Размер:  1,36 GB   |    Скачан:  133 раза
Сидов:  1  [  0 KB/s  ]  
 
Автор Сообщение

Marsianka

[] 

Информация о фильме
Название: Чужаки в монастыре Шаолинь
Оригинальное название: Sam chong Siu Lam
Год выхода: 1983
Жанр: боевые искусства
Режиссер: Чиа Тэнг
В ролях: Тун-Шин Йи, Джэйсон Паи Пиао, Филлип Ко, Юк Лау, Фенг Ку, Фэй Аи, Ли Хой Сань, Квок Куэнь Чан, Шен Чан, Куо Хуа Чанг, Юнг Чунг Чанг, Джинг Мэн Фанг, Пак-Квон Хо, Пей Чи Хуанг, Фа Йуан Ли, Лао Шен, Хон Юэнь Ма.

О фильме:
При транспортировке драгоценностей был перебит клан «Золотой тигр». Следующим был истреблен клан «Ветер». На месте преступления обнаружены золотой нож, принадлежащей девушке из банды «6 демонов» Е Синьхуа, а также отпечатки ладоней Джинганг фирменный прием монахов монастыря Шаолинь. Докопаться до истины, кто-же убийцы решают двое: игрок в азартные игры Сяо Юдуо и странствующий боец Лей Сюн



Страна: Китай, Гонконг
Студия: Shaw Brothers
Продолжительность: 01:25:46
Перевод: Профессиональный многоголосый

Файл
Кодек: XviD
Качество: DVDRip
Видео: 720x320, 2074 Кбит/сек, 29,970 кадров/сек.
Звук: MPEG Layer 3, 2 канала, 48,0 КГц, 192 Кбит/сек
Субтитры: Нет
Формат : AVI
Формат/Информация : Audio Video Interleave
Размер файла : 1,36 Гбайт
Продолжительность : 1 ч. 25 м.
Общий поток : 2277 Кбит/сек
Программа кодирования : VirtualDubModRus 1.5.10.2 (build 2540/release)
Библиотека кодирования : VirtualDubMod build 2540/release

Видео
Идентификатор : 0
Формат : MPEG-4 Visual
Профиль формата : Advanced Simple@L5
Параметр BVOP формата : 1
Параметр QPel формата : Нет
Параметр GMC формата : Без точки перехода
Параметр матрицы формата : Выборочная
Идентификатор кодека : XVID
Идентификатор кодека/Подсказка : XviD
Продолжительность : 1 ч. 25 м.
Битрейт : 2074 Кбит/сек
Ширина : 720 пикселей
Высота : 320 пикселей
Соотношение сторон : 2,25:1
Частота кадров : 29,970 кадров/сек
Цветовое пространство : YUV
Субдискретизация насыщенности : 4:2:0
Битовая глубина : 8 бит
Тип развёртки : Прогрессивная
Метод сжатия : С потерями
Бит/(Пиксели*Кадры) : 0.300
Размер потока : 1,24 Гбайт (91%)
Библиотека кодирования : XviD 64

Аудио
Идентификатор : 1
Формат : MPEG Audio
Версия формата : Version 1
Профиль формата : Layer 3
Идентификатор кодека : 55
Идентификатор кодека/Подсказка : MP3
Продолжительность : 1 ч. 25 м.
Вид битрейта : Постоянный
Битрейт : 192 Кбит/сек
Каналы : 2 канала
Частота : 48,0 КГц
Метод сжатия : С потерями
Размер потока : 118 Мбайт (8%)
Выравнивание : Соединение по промежуткам
Продолжительность промежутка : 33 мс. (1,00 видеокадр)
Время предзагрузки промежутка : 504 мс.
Библиотека кодирования : LAME3.98r
Настройки программы : -m s -V 4 -q 2 -lowpass 18.6 -b 192



Скачать Чужаки.в.монастыре.Шаолинь.Sam.chong.Siu.Lam.(Чиа.Тэнг).[1983.боевые.искусства.DVDRip].[MVO].torrent без регистрации
Золото ЗОЛОТАЯ РАЗДАЧА! СКАЧАННОЕ НЕ ЗАСЧИТЫВАЕТСЯ! Золото
Дата: Зарегистрирован   [ Тип: внутренний ] Как тут cкачать?
MAGNET ссылка
MAGNET ссылка


Скачать .torrent

14 KB

Статус: проверено DHT
Скачан: торрент - 133 раз, раздача полностью - 14 раз
Размер: 1,36 GB
Оценка:  5 (Голосов: 1)
Поблагодарили: 2
Поделиться ссылкой на эту раздачу с друзьями:
В контактеFacebookОдноклассникиTwitterLivejournalМой МирLiveinternet
 

 
Показать сообщения:    


Вы не можете начинать темы
Вы не можете отвечать на сообщения
Вы не можете редактировать свои сообщения
Вы не можете удалять свои сообщения
Вы не можете голосовать в опросах
Вы не можете прикреплять файлы к сообщениям
Вы можете скачивать файлы