Loading...
Error

Скачать Последователи / The Following (сезон 01) ( Маркос Сига, Джошуа Батлер) [2013, триллер, драма, криминал, WEB-DLRip] [720p] [MVO (NewStudio)] торрент без регистрации

 
Статистика раздачи
Размер:  22,06 GB   |    Скачан:  206 раз
Сидов:  1  [  0 KB/s  ]  
 
Автор Сообщение

МихаНЕзатор

[] 

[img=right]hhttp://i076.radikal.ru/1303/1a/74ae257abcb5.gif[/img]

Название: Последователи
Оригинальное название: The Following
Год выпуска:
Жанр: триллер, драма, криминал
Режиссер: Маркос Сига (Marcos Siega), Джошуа Батлер (Joshua Butler)

В ролях: Кевин Бейкон, Джеймс Пьюрфой, Шон Эшмор, Кайл Кэтлетт, Натали Зиа, Энни Пэррис, Нико Торторелла, Грег Пол, Ли Джан Ли и другие

Описание: Когда печально известный серийный убийца Джо Кэрролл сбегает из ряда смертников, ФБР вызывает бывшего агента Райана Харди как консультанта. Харди уже один раз словил Кэрролла в 2003 году, после того, как Кэролл убил 14 студенток. Харди знает о Кэрролле все. Но сам Харди уже не тот, что прежде. После изнурительной погони за убийцей в прошлый раз Харди получил физические и душевные раны, и давно не работал. Это новое расследование его шанс на искупление. Харди приходится работать в команде с другими фбровцами, в частности с Майком Вестоном и Деброй Паркер. И хотя команда сначала воспринимает Харди как обузу, он быстро доказывает свою полезность, выясняя, что у Кэрролла появилась целая сеть последователей. Расследование приводит Харди к Клэр Мэттьюз, бывшей жене Кэрролла и матери его сына Джоуи. Харди надеется, что Клэр поможет ему, как помогала в прошлом расследовании. А тем временем последователи Кэрролла похищают девушку, которую он не успел убить 10 лет назад.

Страна: США
Продолжительность: 01 x ~ 00:45:00
Перевод: Профессиональный (многоголосый, закадровый) - NewStudio
Субтитры: Нет

Озвучка: Кирилл Туранский, Анна Тух, Константин Погодаев, Александр Дасевич
Перевод: МЕКС
Подготовка видео: МЕКС
Работа со звуком: Koss

Качество: WEB-DLRip 720p
Формат: MKV
Видео: XviD, 3747 Кбит/с, 1280x720
Аудио rus: AC3, 6 ch, 384 Кбит/с
Аудио eng: AC3, 6 ch, 384 Кбит/с

Релиз от:

21.06.2013 г. торент перезалит, сезон полностью!

01. Пилот
02. Глава вторая
03. Огонь поэта / The Poet's Fire
04. Безумная любовь / Mad Love
05. Осада / The Siege
06. Провал / The Fall
07. Отпусти меня / Let me go
08. Добро пожаловать Домой!
09. Любящие сердца / Love Hurts
10. Вина / Guilt
11. Плети и сожаление / Whips & Regret
12. Проклятие / The Curse
13. Хэйвенпорт
14. Конец близок
15. Последняя глава
Format : Matroska
Format version : Version 4 / Version 2
File size : 1.47 GiB
Duration : 45mn 38s
Overall bit rate : 4 606 Kbps
Encoded date : UTC 2013-01-22 21:51:42
Writing application : mkvmerge v6.0.0 ('Coming Up For Air') built on Jan 20 2013 09:52:00
Writing library : libebml v1.3.0 + libmatroska v1.4.0

Video
ID : 1
Format : AVC
Format/Info : Advanced Video Codec
Format profile : High@L3.1
Format settings, CABAC : No
Format settings, ReFrames : 2 frames
Codec ID : V_MPEG4/ISO/AVC
Duration : 45mn 38s
Bit rate : 3 747 Kbps
Width : 1 280 pixels
Height : 720 pixels
Display aspect ratio : 16:9
Frame rate : 23.976 fps
Color space : YUV
Chroma subsampling : 4:2:0
Bit depth : 8 bits
Scan type : Progressive
Bits/(Pixel*Frame) : 0.170
Stream size : 1.19 GiB (81%)
Language : English
Default : Yes
Forced : No
Color primaries : BT.709-5, BT.1361, IEC 61966-2-4, SMPTE RP177
Transfer characteristics : BT.709-5, BT.1361
Matrix coefficients : BT.709-5, BT.1361, IEC 61966-2-4 709, SMPTE RP177

Audio #1
ID : 2
Format : AC-3
Format/Info : Audio Coding 3
Mode extension : CM (complete main)
Codec ID : A_AC3
Duration : 45mn 38s
Bit rate mode : Constant
Bit rate : 384 Kbps
Channel(s) : 6 channels
Channel positions : Front: L C R, Side: L R, LFE
Sampling rate : 48.0 KHz
Bit depth : 16 bits
Compression mode : Lossy
Stream size : 125 MiB (8%)
Language : Russian
Default : Yes
Forced : No

Audio #2
ID : 3
Format : AC-3
Format/Info : Audio Coding 3
Mode extension : CM (complete main)
Codec ID : A_AC3
Duration : 45mn 38s
Bit rate mode : Constant
Bit rate : 384 Kbps
Channel(s) : 6 channels
Channel positions : Front: L C R, Side: L R, LFE
Sampling rate : 48.0 KHz
Bit depth : 16 bits
Compression mode : Lossy
Stream size : 125 MiB (8%)
Language : English
Default : No
Forced : No



Скачать Последователи.The.Following.(сезон.01).(.Маркос.Сига.Джошуа.Батлер).[2013.триллер.драма.криминал.WEB-DLRip].[720p].[MVO.(NewStudio)].torrent без регистрации
Золото ЗОЛОТАЯ РАЗДАЧА! СКАЧАННОЕ НЕ ЗАСЧИТЫВАЕТСЯ! Золото
Дата: Зарегистрирован   [ Тип: внутренний ] Как тут cкачать?
MAGNET ссылка
MAGNET ссылка


Скачать .torrent

112 KB

Статус: проверено DHT
Скачан: торрент - 206 раз, раздача полностью - 5 раз
Размер: 22,06 GB
Оценка:  5 (Голосов: 1)
Поблагодарили: 3
Поделиться ссылкой на эту раздачу с друзьями:
В контактеFacebookОдноклассникиTwitterLivejournalМой МирLiveinternet
 

 

МихаНЕзатор

[] 

Раздача обновлена
 
Показать сообщения:    


Вы не можете начинать темы
Вы не можете отвечать на сообщения
Вы не можете редактировать свои сообщения
Вы не можете удалять свои сообщения
Вы не можете голосовать в опросах
Вы не можете прикреплять файлы к сообщениям
Вы можете скачивать файлы