Loading...
Error

Скачать Последователи / The Following (сезон 01) ( Маркос Сига, Джошуа Батлер) [2013, триллер, драма, криминал, WEB-DLRip] [MVO (NewStudio)] торрент без регистрации

 
Статистика раздачи
Размер:  8,8 GB   |    Скачан:  234 раза
Сидов:  1  [  0 KB/s  ]  
 
Автор Сообщение

МихаНЕзатор

[] 

Название: Последователи
Оригинальное название: The Following
Год выпуска:
Жанр: триллер, драма, криминал
Режиссер: Маркос Сига (Marcos Siega), Джошуа Батлер (Joshua Butler)

В ролях: Кевин Бейкон, Джеймс Пьюрфой, Шон Эшмор, Кайл Кэтлетт, Натали Зиа, Энни Пэррис, Нико Торторелла, Грег Пол, Ли Джан Ли и другие

Описание: Когда печально известный серийный убийца Джо Кэрролл сбегает из ряда смертников, ФБР вызывает бывшего агента Райана Харди как консультанта. Харди уже один раз словил Кэрролла в 2003 году, после того, как Кэролл убил 14 студенток. Харди знает о Кэрролле все. Но сам Харди уже не тот, что прежде. После изнурительной погони за убийцей в прошлый раз Харди получил физические и душевные раны, и давно не работал. Это новое расследование его шанс на искупление. Харди приходится работать в команде с другими фбровцами, в частности с Майком Вестоном и Деброй Паркер. И хотя команда сначала воспринимает Харди как обузу, он быстро доказывает свою полезность, выясняя, что у Кэрролла появилась целая сеть последователей. Расследование приводит Харди к Клэр Мэттьюз, бывшей жене Кэрролла и матери его сына Джоуи. Харди надеется, что Клэр поможет ему, как помогала в прошлом расследовании. А тем временем последователи Кэрролла похищают девушку, которую он не успел убить 10 лет назад.

Страна: США
Продолжительность: 01 x ~ 00:45:00
Перевод: Профессиональный (многоголосый, закадровый) - NewStudio
Субтитры: Нет

Озвучка: Кирилл Туранский, Анна Тух, Константин Погодаев, Александр Дасевич
Перевод: МЕКС
Подготовка видео: МЕКС
Работа со звуком: Koss

Качество: WEB-DLRip
Формат: AVI
Видео: XviD, ~ 1499 Кбит/с, 720x400
Аудио rus: MP3, 2 ch, 192 Кбит/с
Аудио eng: MP3, 2 ch, 192 Кбит/с

Релиз от:

01.05.2013 г. торент обновлён, добавлена 15 серия, сезон полностью!

01. Пилот
02. Глава вторая
03. Огонь поэта / The Poet's Fire
04. Безумная любовь / Mad Love
05. Осада / The Siege
06. Провал / The Fall
07. Отпусти меня / Let me go
08. Добро пожаловать Домой! / Welco
09. Любящие сердца / Love Hurts
10. Вина / Guilt
11. Плети и сожаление / Whips & Regret
12. Проклятие / The Curse
13. Хэйвепорт / Havenport
14. Конец близок / The End Is Near
15. Последняя глава
Формат : AVI
Формат/Информация : Audio Video Interleave
Размер файла : 622 Мбайт
Продолжительность : 45 м.
Общий поток : 1898 Кбит/сек
Программа кодирования : VirtualDubMod 1.5.10.2 (build 2540/release)
Библиотека кодирования : VirtualDubMod build 2540/release

Видео
Идентификатор : 0
Формат : MPEG-4 Visual
Профиль формата : Advanced Simple@L5
Параметр BVOP формата : 1
Параметр QPel формата : Нет
Параметр GMC формата : Без точки перехода
Параметр матрицы формата : Default (MPEG)
Идентификатор кодека : XVID
Идентификатор кодека/Подсказка : XviD
Продолжительность : 45 м.
Битрейт : 1500 Кбит/сек
Ширина : 720 пикс.
Высота : 400 пикс.
Соотношение сторон : 16:9
Частота кадров : 23,976 кадр/сек
Цветовое пространство : YUV
Подвыборка цветности : 4:2:0
Битовая глубина : 8 бит
Тип развёртки : Прогрессивная
Метод сжатия : С потерями
Бит/(Пиксели*Кадры) : 0.217
Размер потока : 492 Мбайт (79%)
Библиотека кодирования : XviD 1.2.1 (UTC 2008-12-04)

Аудио #1
Идентификатор : 1
Формат : MPEG Audio
Версия формата : Version 1
Профиль формата : Layer 3
Идентификатор кодека : 55
Идентификатор кодека/Подсказка : MP3
Продолжительность : 45 м.
Вид битрейта : Постоянный
Битрейт : 192 Кбит/сек
Каналы : 2 канала
Частота : 48,0 КГц
Метод сжатия : С потерями
Размер потока : 62,9 Мбайт (10%)
Выравнивание : Соединение по промежуткам
Продолжительность промежутка : 42 мс. (1,00 видеокадр)
Время предзагрузки промежутка : 504 ms
Библиотека кодирования : LAME3.99r
Настройки программы : -m s -V 4 -q 2 -lowpass 18.6 -b 192

Аудио #2
Идентификатор : 2
Формат : MPEG Audio
Версия формата : Version 1
Профиль формата : Layer 3
Идентификатор кодека : 55
Идентификатор кодека/Подсказка : MP3
Продолжительность : 45 м.
Вид битрейта : Постоянный
Битрейт : 192 Кбит/сек
Каналы : 2 канала
Частота : 48,0 КГц
Метод сжатия : С потерями
Размер потока : 62,9 Мбайт (10%)
Выравнивание : Соединение по промежуткам
Продолжительность промежутка : 42 мс. (1,00 видеокадр)
Время предзагрузки промежутка : 504 ms
Библиотека кодирования : LAME3.99r
Настройки программы : -m s -V 4 -q 2 -lowpass 18.6 -b 192



Скачать Последователи.The.Following.(сезон.01).(.Маркос.Сига.Джошуа.Батлер).[2013.триллер.драма.криминал.WEB-DLRip].[MVO.(NewStudio)].torrent без регистрации
Золото ЗОЛОТАЯ РАЗДАЧА! СКАЧАННОЕ НЕ ЗАСЧИТЫВАЕТСЯ! Золото
Дата: Зарегистрирован   [ Тип: внутренний ] Как тут cкачать?
MAGNET ссылка
MAGNET ссылка


Скачать .torrent

46 KB

Статус: проверено DHT
Скачан: торрент - 234 раз, раздача полностью - 48 раз
Размер: 8,8 GB
Оценка:  5 (Голосов: 1)
Поблагодарили: 5
Поделиться ссылкой на эту раздачу с друзьями:
В контактеFacebookОдноклассникиTwitterLivejournalМой МирLiveinternet
 

 

МихаНЕзатор

[] 

Раздача обновлена
 
Показать сообщения:    


Вы не можете начинать темы
Вы не можете отвечать на сообщения
Вы не можете редактировать свои сообщения
Вы не можете удалять свои сообщения
Вы не можете голосовать в опросах
Вы не можете прикреплять файлы к сообщениям
Вы можете скачивать файлы