Loading...
Error

Скачать H+: Цифровой сериал / H+: The Digital Series (01-48 из 48) (Стюарт Хендлер) [2012, фантастика, триллер, киберпанк, WEBRip] [720p] [DVO (pandora2177)] торрент без регистрации

 
Статистика раздачи
Размер:  4,02 GB   |    Скачан:  185 раз
Сидов:  1  [  0 KB/s  ]  
 
Автор Сообщение

МихаНЕзатор

[] 

Информация о фильме
Название: H+: Цифровой сериал
Оригинальное название: H+: The Digital Series
Год выхода: 2011-2012
Жанр: фантастика, Триллер, Киберпанк
Режиссер: Стюарт Хэндлер
В ролях: Ханна Херцшпрунг, Алексис Денисоф, Шон Ганн, Дэвид Клэйтон Роджерз

О фильме: В недалёком будущем треть населения мира воспользовалась возможностью подключить человеческий разум к Интернету на все 24 часа в сутки. Имплантат, названный H+, стал воплощением идеи трансгуманизма - мировоззрения, поддерживающего трансформацию человека с помощью передовых технологий. Но что будет, если однажды система даст сбой? Человечество уходит в офф-лайн, а вместе с ним отключается и человечность. На смену гуманности приходит выживание.

Страна: США
Продолжительность: 01:29:27 и 01:27:18
Перевод: Любительский двухголосый закадровый ( pandora2177 и Виктор Ерёменко)


Доп. информация:
Сериал смонтирован из 48 серий в две. Вырезаны вступления и анонсы. Названия всех эпизодов обозначены в фильме.




Файл
Кодек: XviD
Качество: WEB-DL 720p
Видео: 1280x720 (4:2:0),29,9 fps, XviD (H.263) build 64 ~3097 Кбит/сек
Звук: RUS: 48 kHz, AC3 Dolby Digital, 2/0 (L,R) ch, ~192 kbps

VirtualDub Mod
Wondershare Video Editor

Формат : AVI
Формат/Информация : Audio Video Interleave
Профиль формата : OpenDML
Размер файла : 2,07 Гбайт
Продолжительность : 1 ч. 29 м.
Общий поток : 3307 Кбит/сек

Видео
Идентификатор : 0
Формат : MPEG-4 Visual
Профиль формата : Simple@L3
Параметр BVOP формата : Нет
Параметр QPel формата : Нет
Параметр GMC формата : Без точки перехода
Параметр матрицы формата : Default (H.263)
Идентификатор кодека : XVID
Идентификатор кодека/Подсказка : XviD
Продолжительность : 1 ч. 29 м.
Битрейт : 3097 Кбит/сек
Ширина : 1280 пикс.
Высота : 720 пикс.
Соотношение сторон : 16:9
Частота кадров : 29,970 кадр/сек
Частота кадров в оригинале : 29,000 кадр/сек
Цветовое пространство : YUV
Подвыборка цветности : 4:2:0
Битовая глубина : 8 бит
Тип развёртки : Прогрессивная
Метод сжатия : С потерями
Бит/(Пиксели*Кадры) : 0.112
Размер потока : 1,94 Гбайт (94%)
Библиотека кодирования : XviD 1.2.1 (UTC 2008-12-04)

Аудио
Идентификатор : 1
Формат : MPEG Audio
Версия формата : Version 1
Профиль формата : Layer 3
Режим : Joint stereo
Расширение режима : MS Stereo
Идентификатор кодека : 55
Идентификатор кодека/Подсказка : MP3
Продолжительность : 1 ч. 29 м.
Вид битрейта : Постоянный
Битрейт : 192 Кбит/сек
Каналы : 2 канала
Частота : 44,1 КГц
Метод сжатия : С потерями
Размер потока : 123 Мбайт (6%)
Выравнивание : Соединение по промежуткам
Продолжительность промежутка : 26 мс. (0,78 видеокадр)
Библиотека кодирования : LAME3.98.2



Скачать H+.Цифровой.сериал.H+.The.Digital.Series.(01-48.из.48).(Стюарт.Хендлер).[2012.фантастика.триллер.киберпанк.WEBRip].[720p].[DVO.(pandora2177)].torrent без регистрации
Золото ЗОЛОТАЯ РАЗДАЧА! СКАЧАННОЕ НЕ ЗАСЧИТЫВАЕТСЯ! Золото
Дата: Зарегистрирован   [ Тип: внутренний ] Как тут cкачать?
MAGNET ссылка
MAGNET ссылка


Скачать .torrent

11 KB

Статус: проверено DHT
Скачан: торрент - 185 раз, раздача полностью - 118 раз
Размер: 4,02 GB
Оценка:  5 (Голосов: 1)
Поблагодарили: 4
Поделиться ссылкой на эту раздачу с друзьями:
В контактеFacebookОдноклассникиTwitterLivejournalМой МирLiveinternet
 

 
Показать сообщения:    


Вы не можете начинать темы
Вы не можете отвечать на сообщения
Вы не можете редактировать свои сообщения
Вы не можете удалять свои сообщения
Вы не можете голосовать в опросах
Вы не можете прикреплять файлы к сообщениям
Вы можете скачивать файлы