Loading...
Error

Скачать Манон 70 / Manon 70 (Жан Аурэль) [1968, драма, DVDRip-AVC] [DVO]+[Оригинал]+[Sub] торрент без регистрации

 
Статистика раздачи
Размер:  1,45 GB   |    Скачан:  125 раз
Сидов:  1  [  0 KB/s  ]  
 
Автор Сообщение

Marsianka

[] 

Страна: Франция, Италия, Германия (ФРГ)
Жанр: драма
Год выпуска: 1968
Продолжительность: 01:41:35
Перевод: Профессиональный (двухголосый, закадровый) + Оригинальный
Субтитры: английские.
Режиссер: Жан Аурэль / Jean Aurel
В ролях: Катрин Денёв (Manon), Жан-Клод Бриали (Jean-Paul), Сами Фрей (Des Grieux), Эльза Мартинелли (Annie), Роберт Уэббер (Ravaggi), Пауль Хубшмид (Simon), Клод Жениа (Wife), Жан Мартен (Hotelman), Крис Аврам, Manuela von Oppen (Margaret)
Описание: Они нашли друг друга случайно. И эта встреча стала началом большой любви. Он - журналист, она - красивая женщина, привыкшая получать все, что захочет. Франсуа подарил Манон настоящую любовь, но, очевидно, этого оказалось мало. Красавица исчезла так же быстро, как и появилась. Она слишком привыкла к образу жизни дорогой проститутки. Как совместить двойную жизнь и любовь? Чтобы быть рядом с Манон, Франсуа приходится войти в роль ее брата. Но как мучительно наблюдать любимуюженщину в объятиях другого мужчины! Деньги и любовь, любовь к деньгам и деньги для любви... Распутать этот клубок противоречий сможет лишь настоящее чувство.


Качество: DVDRip (colt451 | DVD5 [Custom])
Контейнер: MKV

Видео: AVC, 712x480 @ 843x480 (16:9), 1655 kbps, 23.976 fps, 0.202 bpp
Аудио 1: русский / AC3 / 2.0 / 48 kHz / 192 kbps
Аудио 2: французский / AC3 / 2.0 / 48 kHz / 192 kbps
Навигация по главам: есть
Семпл

General
Unique ID : 186131724072086160906361350581601511722 (0x8C07AA85783B5B769D07E51A61A5292A)
Complete name : C:TorrentManon70.mkv
Format : Matroska
Format version : Version 2
File size : 1.45 GiB
Duration : 1h 41mn
Overall bit rate : 2 041 Kbps
Movie name : = Манон 70 / Manon 70 DVDRip by SC Kosmos =
Encoded date : UTC 2013-01-22 14:48:38
Writing application : mkvmerge v3.3.0 ('Language') gebaut am Mar 24 2010 14:59:24
Writing library : libebml v0.8.0 + libmatroska v0.9.0

Video
ID : 1
Format : AVC
Format/Info : Advanced Video Codec
Format profile : High@L4.1
Format settings, CABAC : Yes
Format settings, ReFrames : 14 frames
Codec ID : V_MPEG4/ISO/AVC
Duration : 1h 41mn
Bit rate : 1 655 Kbps
Width : 712 pixels
Height : 480 pixels
Display aspect ratio : 16:9
Original display aspect ratio : 16:9
Frame rate : 23.976 fps
Color space : YUV
Chroma subsampling : 4:2:0
Bit depth : 8 bits
Scan type : Progressive
Bits/(Pixel*Frame) : 0.202
Stream size : 1.15 GiB (79%)
Title : Манон 70 / Manon 70 DVDRip by SC Kosmos
Writing library : x264 core 129 r2245 bc13772
Encoding settings : cabac=1 / ref=14 / deblock=1:-2:-2 / analyse=0x3:0x112 / me=umh / subme=11 / psy=1 / psy_rd=1.00:0.15 / mixed_ref=1 / me_range=32 / chroma_me=1 / trellis=2 / 8x8dct=1 / cqm=0 / deadzone=21,11 / fast_pskip=1 / chroma_qp_offset=-3 / threads=12 / lookahead_threads=2 / sliced_threads=0 / nr=0 / decimate=1 / interlaced=0 / bluray_compat=0 / constrained_intra=0 / bframes=12 / b_pyramid=2 / b_adapt=1 / b_bias=0 / direct=3 / weightb=1 / open_gop=0 / weightp=1 / keyint=240 / keyint_min=23 / scenecut=40 / intra_refresh=0 / rc=2pass / mbtree=0 / bitrate=1655 / ratetol=1.0 / qcomp=0.60 / qpmin=0 / qpmax=69 / qpstep=4 / cplxblur=20.0 / qblur=0.5 / ip_ratio=1.40 / pb_ratio=1.30 / aq=1:1.00
Language : French
Default : No
Forced : No

Audio #1
ID : 2
Format : AC-3
Format/Info : Audio Coding 3
Mode extension : CM (complete main)
Codec ID : A_AC3
Duration : 1h 41mn
Bit rate mode : Constant
Bit rate : 192 Kbps
Channel(s) : 2 channels
Channel positions : Front: L R
Sampling rate : 48.0 KHz
Bit depth : 16 bits
Compression mode : Lossy
Stream size : 140 MiB (9%)
Title : DVO
Language : Russian
Default : Yes
Forced : No

Audio #2
ID : 3
Format : AC-3
Format/Info : Audio Coding 3
Mode extension : CM (complete main)
Codec ID : A_AC3
Duration : 1h 41mn
Bit rate mode : Constant
Bit rate : 192 Kbps
Channel(s) : 2 channels
Channel positions : Front: L R
Sampling rate : 48.0 KHz
Bit depth : 16 bits
Compression mode : Lossy
Stream size : 140 MiB (9%)
Language : French
Default : No
Forced : No

Text
ID : 4
Format : UTF-8
Codec ID : S_TEXT/UTF8
Codec ID/Info : UTF-8 Plain Text
Language : English
Default : Yes
Forced : No

Menu
00:00:00.000 : en:Chapter 01
00:04:37.000 : en:Chapter 02
00:08:39.667 : en:Chapter 03
00:13:10.067 : en:Chapter 04
00:17:01.401 : en:Chapter 05
00:22:03.668 : en:Chapter 06
00:27:19.536 : en:Chapter 07
00:30:50.736 : en:Chapter 08
00:34:01.303 : en:Chapter 09
00:38:50.336 : en:Chapter 10
00:42:24.870 : en:Chapter 11
00:48:25.738 : en:Chapter 12
00:50:39.472 : en:Chapter 13
00:56:34.839 : en:Chapter 14
00:59:11.540 : en:Chapter 15
01:04:14.074 : en:Chapter 16
01:14:06.608 : en:Chapter 17
01:19:44.375 : en:Chapter 18
01:25:34.709 : en:Chapter 19
01:32:56.876 : en:Chapter 20
01:41:27.176 : en:Chapter 21


За русскую дорожку - спасибо olegsa



Скачать Манон.70.Manon.70.(Жан.Аурэль).[1968.драма.DVDRip-AVC].[DVO]+[Оригинал]+[Sub].torrent без регистрации
Золото ЗОЛОТАЯ РАЗДАЧА! СКАЧАННОЕ НЕ ЗАСЧИТЫВАЕТСЯ! Золото
Дата: Зарегистрирован   [ Тип: внутренний ] Как тут cкачать?
MAGNET ссылка
MAGNET ссылка


Скачать .torrent

15 KB

Статус: проверено DHT
Скачан: торрент - 125 раз, раздача полностью - 13 раз
Размер: 1,45 GB
Оценка:  - (Голосов: 0)
Поблагодарили: 1
Поделиться ссылкой на эту раздачу с друзьями:
В контактеFacebookОдноклассникиTwitterLivejournalМой МирLiveinternet
 

 
Показать сообщения:    


Вы не можете начинать темы
Вы не можете отвечать на сообщения
Вы не можете редактировать свои сообщения
Вы не можете удалять свои сообщения
Вы не можете голосовать в опросах
Вы не можете прикреплять файлы к сообщениям
Вы можете скачивать файлы