Loading...
Error

Скачать Прокол / Blow Out (Брайан Де Пальма) [1981, триллер, драма, криминал, детектив, HDRip] [MVO] торрент без регистрации

 
Статистика раздачи
Размер:  745 MB   |    Скачан:  130 раз
Сидов:  1  [  0 KB/s  ]  
 
Автор Сообщение

Marsianka

[] 

Информация о фильме
Название: Прокол
Оригинальное название: Blow Out
Год выхода: 1981
Жанр: триллер, драма, криминал, детектив
Режиссер: Брайан Де Пальма / Brian De Palma
В ролях: Джон Траволта, Нэнси Аллен, Джон Литгоу, Деннис Франц, Питер Бойден, Курт Мэй, Джон Акино, Джон МакМартин, Дебора Эвертон, Дж. Патрик МакНамара

О фильме:
Когда звукорежиссер Джек записывал звуковые эффекты для нового фильма, он стал свидетелем падения в реку потерявшего управление автомобиля и спас из затонувшей машины девушку по имени Салли. Ехавший с ней мужчина погиб.
Джек тщетно пытается убедить полицию, что одновременно со звуком лопнувшей покрышки слышал звук выстрела. Помощник погибшего, оказавшегося известным политическим деятелем, советует Джеку поскорее забыть эту историю. Выйдя из больницы, Джек решает прослушать сделанную им в тот день запись.
Сомнений быть не может он отчетливо слышит звук выстрела. Более того, есть еще один свидетель автокатастрофы фотограф Мэнни, заснявший всю последовательность событий. Джек тайком наведывается в студию Мэнни и находит там фотографии Салли, снятой вместе с известными людьми в весьма недвусмысленных позах



Страна: США
Продолжительность: 01:48:03
Перевод: Профессиональный (многоголосый закадровый)

Файл
Кодек: XviD
Качество: HDRip
Видео: 656x272 (2.40:1), 23.976 fps, 827 Kbps, 0.193 Bits/(Pixel*Frame)
Звук: MP3, 48 KHz, 128 Kbps, 2 channels

Семпл
General
Complete name : D:Prokol.1981.HDRip.XviD.745mb.avi
Format : AVI
Format/Info : Audio Video Interleave
File size : 745 MiB
Duration : 1h 48mn
Overall bit rate : 964 Kbps
Writing application : VirtualDubMod 1.5.10.2 (build 2540/release)
Writing library : VirtualDubMod build 2540/release

Video
ID : 0
Format : MPEG-4 Visual
Format profile : Advanced Simple@L5
Format settings, BVOP : 1
Format settings, QPel : No
Format settings, GMC : No warppoints
Format settings, Matrix : Custom
Codec ID : XVID
Codec ID/Hint : XviD
Duration : 1h 48mn
Bit rate : 827 Kbps
Width : 656 pixels
Height : 272 pixels
Display aspect ratio : 2.40:1
Frame rate : 23.976 fps
Color space : YUV
Chroma subsampling : 4:2:0
Bit depth : 8 bits
Scan type : Progressive
Compression mode : Lossy
Bits/(Pixel*Frame) : 0.193
Stream size : 639 MiB (86%)
Writing library : XviD 1.2.1 (UTC 2008-12-04)

Audio
ID : 1
Format : MPEG Audio
Format version : Version 1
Format profile : Layer 3
Codec ID : 55
Codec ID/Hint : MP3
Duration : 1h 48mn
Bit rate mode : Constant
Bit rate : 128 Kbps
Channel(s) : 2 channels
Sampling rate : 48.0 KHz
Compression mode : Lossy
Stream size : 98.9 MiB (13%)
Alignment : Aligned on interleaves
Interleave, duration : 42 ms (1.00 video frame)
Interleave, preload duration : 504 ms
Writing library : LAME3.98r
Encoding settings : -m s -V 4 -q 2 -lowpass 17 -b 128











Скачать Прокол.Blow.Out.(Брайан.Де.Пальма).[1981.триллер.драма.криминал.детектив.HDRip].[MVO].torrent без регистрации
Золото ЗОЛОТАЯ РАЗДАЧА! СКАЧАННОЕ НЕ ЗАСЧИТЫВАЕТСЯ! Золото
Дата: Зарегистрирован   [ Тип: внутренний ] Как тут cкачать?
MAGNET ссылка
MAGNET ссылка


Скачать .torrent

15 KB

Статус: проверено DHT
Скачан: торрент - 130 раз, раздача полностью - 23 раз
Размер: 745 MB
Оценка:  - (Голосов: 0)
Поблагодарили: 1
Поделиться ссылкой на эту раздачу с друзьями:
В контактеFacebookОдноклассникиTwitterLivejournalМой МирLiveinternet
 

 
Показать сообщения:    


Вы не можете начинать темы
Вы не можете отвечать на сообщения
Вы не можете редактировать свои сообщения
Вы не можете удалять свои сообщения
Вы не можете голосовать в опросах
Вы не можете прикреплять файлы к сообщениям
Вы можете скачивать файлы