Loading...
Error

Скачать Привычка жениться / The Marrying Man (Джерри Рис / Jerry Rees) [1991, мелодрама, комедия, музыка, BDRip] [Dub] (Союз работников дубляжа по заказу ВГТРК) торрент без регистрации

 
Статистика раздачи
Размер:  2,08 GB   |    Скачан:  134 раза
Сидов:  1  [  0 KB/s  ]  
 
Автор Сообщение

leon030982

[] 

Привычка жениться / The Marrying Man


Год выпуска: 1991
Страна: США
Жанр: мелодрама, комедия, музыка
Продолжительность: 01:56:23
Перевод: Профессиональный (дублированный) [Творческая группа Союза работников дубляжа по заказу ВГТРК]
Cубтитры: нет
Оригинальная аудиодорожка: английский

Режиссер: Джерри Рис / Jerry Rees

В ролях: Ким Бейсингер, Алек Болдуин, , Роберт Лоджа, Элизабет Шу, Арманд Ассанте, Пол Райзер, Фишер Стивенс, Питер Добсон, Стив Хитнер, Джереми Робертс, Большой Джон Стадд, Тони Лонго

Описание: У миллионера Чарльза Пирла есть вкус, стиль, обаяние — все, что нужно покорителю женских сердец. Вскоре дочь самого влиятельного человека в Голливуде выйдет за него замуж. Однако по дороге к алтарю незадачливый жених встречает девушку своей мечты.
Певица Вики Андерсон красива, соблазнительна и согласна стать его женой. Чарльз снова возвращается под венец, не подозревая, что вскоре станет здесь частым гостем…




Сэмпл: http://multi-up.com/821000
Качество видео: BDRip
Формат видео: AVI
Видео: 704x400 (1.76:1), 23.976 fps, XviD build 63 ~1912 kbps avg, 0.28 bit/pixel
Аудио: AC3, 48 kHz, 256 kbps, 2 channels дубляж
Аудио 2: AC3 Dolby Digital, 48 kHz , 384 kbps, 3/2 (L,C,R,l,r) + LFE ch оригинал
При написании сценария драматург Нил Саймон вдохновлялся реальной историей отношений актрисы Мэри Макдональд по прозвищу "Тело" и обувного магната Гарри Карла, за которого она дважды выходила замуж. Она, кстати, была любовницей гангстера Багси Сигела. Да, Ассанте играет роль почти реального человека. Почти, потому что настоящего Сигела грохнули за год до начала событий фильма.
Алек Болдуин и Ким Бейсингер познакомились на съёмках этого фильма, "Сделали это. Влюбились" и сыграли свадьбу. Правда, вместе прожили всего шесть лет и развелись.
В прокате фильм провалился. При бюджете в 26 миллионов он собрал всего 12 464 768 долларов. Аа, кого волнуют эти цифры, кино-то отличное, верно.
Фильм дублирован Творческой группой Союза работников дубляжа по заказу ВГТРК в 1995 году. Перевод Ольги Клюшниковой , автор синхронного текста и режиссёр дубляжа Виктория Чаева, роли дублировали Мария Овчинникова, Владимир Антоник, Любовь Германова, Рудольф Панков, Алексей Иващеноко, Вячеслав Баранов, Вадим Курков, Александр Рыжков, Алексей Золотницкий
Звук с канала "Комедия" записал nikKO78, за что ему огромное спасибо. А то я было хотел делать релиз с кассетным звуком.
Существует ещё один дубляж для этого фильма. Студия "Невафильм" сделала его в 1994 году для кинотеатрального показа. Обозвав фильм, как "Сладкая парочка".
В 1995-1996 годах телеканал РТР (ВГТРК) в рамках рубрики "Сделано в Голливуде" показал 30 или более картин, в основном, производства компании Silver Screen Partners (под эгидой Диснея). Все эти фильмы были продублированы на русский язык либо компанией "Св-Дубль", либо Союзом работников дубляжа. Впоследствии некоторые фильмы были официально изданы на ДВД-дисках с этими дубляжами. Но не все. Оставшиеся оцифровали те, кто в свое время записал их на кассеты (ну, навроде меня), еще несколько были записаны при повторных показах.[
Format : AVI
Format/Info : Audio Video Interleave
Format profile : OpenDML
File size : 2.08 GiB
Duration : 1h 56mn
Overall bit rate : 2 559 Kbps
Writing application : VirtualDubModRus 1.5.10.2 (build 2542/release)
Writing library : VirtualDubMod build 2542/release
Video
ID : 0
Format : MPEG-4 Visual
Format profile : Advanced Simple@L5
Format settings, BVOP : 1
Format settings, QPel : No
Format settings, GMC : No warppoints
Format settings, Matrix : Custom
Codec ID : XVID
Codec ID/Hint : XviD
Duration : 1h 56mn
Bit rate : 1 901 Kbps
Width : 704 pixels
Height : 400 pixels
Display aspect ratio : 16:9
Frame rate : 23.976 fps
Color space : YUV
Chroma subsampling : 4:2:0
Bit depth : 8 bits
Scan type : Progressive
Compression mode : Lossy
Bits/(Pixel*Frame) : 0.282
Stream size : 1.55 GiB (74%)
Writing library : XviD 63
Audio #1
ID : 1
Format : AC-3
Format/Info : Audio Coding 3
Mode extension : CM (complete main)
Codec ID : 2000
Duration : 1h 56mn
Bit rate mode : Constant
Bit rate : 256 Kbps
Channel(s) : 2 channels
Channel positions : Front: L R
Sampling rate : 48.0 KHz
Bit depth : 16 bits
Compression mode : Lossy
Stream size : 213 MiB (10%)
Alignment : Aligned on interleaves
Interleave, duration : 42 ms (1.00 video frame)
Interleave, preload duration : 512 ms
Audio #2
ID : 2
Format : AC-3
Format/Info : Audio Coding 3
Mode extension : CM (complete main)
Codec ID : 2000
Duration : 1h 56mn
Bit rate mode : Constant
Bit rate : 384 Kbps
Channel(s) : 6 channels
Channel positions : Front: L C R, Side: L R, LFE
Sampling rate : 48.0 KHz
Bit depth : 16 bits
Compression mode : Lossy
Stream size : 320 MiB (15%)
Alignment : Split accross interleaves
Interleave, duration : 42 ms (1.00 video frame)
Interleave, preload duration : 500 ms



Скачать Привычка.жениться.The.Marrying.Man.(Джерри.Рис.Jerry.Rees).[1991.мелодрама.комедия.музыка.BDRip].[Dub].(Союз.работников.дубляжа.по.заказу.ВГТРК).torrent без регистрации
Золото ЗОЛОТАЯ РАЗДАЧА! СКАЧАННОЕ НЕ ЗАСЧИТЫВАЕТСЯ! Золото
Дата: Зарегистрирован   [ Тип: внутренний ] Как тут cкачать?
MAGNET ссылка
MAGNET ссылка


Скачать .torrent

11 KB

Статус: проверено DHT
Скачан: торрент - 134 раз, раздача полностью - 88 раз
Размер: 2,08 GB
Оценка:  5 (Голосов: 1)
Поблагодарили: 4
Поделиться ссылкой на эту раздачу с друзьями:
В контактеFacebookОдноклассникиTwitterLivejournalМой МирLiveinternet
 

 
Показать сообщения:    


Вы не можете начинать темы
Вы не можете отвечать на сообщения
Вы не можете редактировать свои сообщения
Вы не можете удалять свои сообщения
Вы не можете голосовать в опросах
Вы не можете прикреплять файлы к сообщениям
Вы можете скачивать файлы