Loading...
Error

Скачать Ворон / The Crow (Алекс Пройас / Alex Proyas) [1994, фэнтези, боевик, триллер, BDRip] [AVO] (Дмитрий "Гоблин" Пучков) (ненормативная лексика) торрент без регистрации

 
Статистика раздачи
Размер:  745 MB   |    Скачан:  149 раз
Сидов:  1  [  0 KB/s  ]  
 
Автор Сообщение

leon030982

[] 

Ворон / The Crow
Страна: США
Жанр: фэнтези, боевик, триллер
Год выпуска: 1994
Продолжительность: 01:41:29
Перевод: Авторский (одноголосый закадровый)
Дмитрий "Гоблин" Пучков
(ненормативная лексика)
Cубтитры: нет
Режиссер: Алекс Пройас / Alex Proyas

В ролях: Брэндон Ли, Рошелль Дэвис, Эрни Хадсон, Майкл Уинкотт, Бай Лин, София Шинас, Анна Левайн-Томпсон, Дэвид Патрик Келли, Энджел Дэвид, Лоуренс Мэйсон

Описание: Это была мрачная и страшная ночь. Ночь жуткого праздника Хэллоуин. Банда насильников и убийц, ворвавшись в дом молодой пары, жестоко расправилась с рок-музыкантом Эриком и его невестой Шелли.
Спустя год Эрик Дрэйвен выбирается из могилы и отправляется на поиски убийц. Человек ли он? Или Ворон, жаждущий возмездия?


Качество видео: BDRip [BDRemux 1080p]
Формат видео: AVI
Видео: XviD, 656x352 (1.864), 23.976 fps, 889 Kbps, 0.161 Bits/(Pixel*Frame)
Аудио: MP3, 48 KHz, 128 Kbps, 2 channels
Сэмпл
General
Complete name : D:\Voron.1994.BDRip.XviD.745mb.avi
Format : AVI
Format/Info : Audio Video Interleave
File size : 745 MiB
Duration : 1h 41mn
Overall bit rate : 1 026 Kbps
Writing application : VirtualDubMod 1.5.10.2 (build 2540/release)
Writing library : VirtualDubMod build 2540/release
Video
ID : 0
Format : MPEG-4 Visual
Format profile : Advanced Simple@L5
Format settings, BVOP : 1
Format settings, QPel : No
Format settings, GMC : No warppoints
Format settings, Matrix : Custom
Codec ID : XVID
Codec ID/Hint : XviD
Duration : 1h 41mn
Bit rate : 889 Kbps
Width : 656 pixels
Height : 352 pixels
Display aspect ratio : 1.864
Frame rate : 23.976 fps
Color space : YUV
Chroma subsampling : 4:2:0
Bit depth : 8 bits
Scan type : Progressive
Compression mode : Lossy
Bits/(Pixel*Frame) : 0.161
Stream size : 645 MiB (87%)
Writing library : XviD 1.2.1 (UTC 2008-12-04)
Audio
ID : 1
Format : MPEG Audio
Format version : Version 1
Format profile : Layer 3
Mode : Joint stereo
Mode extension : MS Stereo
Codec ID : 55
Codec ID/Hint : MP3
Duration : 1h 41mn
Bit rate mode : Constant
Bit rate : 128 Kbps
Channel(s) : 2 channels
Sampling rate : 48.0 KHz
Compression mode : Lossy
Stream size : 92.9 MiB (12%)
Alignment : Aligned on interleaves
Interleave, duration : 42 ms (1.00 video frame)
Interleave, preload duration : 504 ms



Скачать Ворон.The.Crow.(Алекс.Пройас.Alex.Proyas).[1994.фэнтези.боевик.триллер.BDRip].[AVO].(Дмитрий."Гоблин".Пучков).(ненормативная.лексика).torrent без регистрации
Золото ЗОЛОТАЯ РАЗДАЧА! СКАЧАННОЕ НЕ ЗАСЧИТЫВАЕТСЯ! Золото
Дата: Зарегистрирован   [ Тип: внутренний ] Как тут cкачать?
MAGNET ссылка
MAGNET ссылка


Скачать .torrent

15 KB

Статус: проверено DHT
Скачан: торрент - 149 раз, раздача полностью - 104 раз
Размер: 745 MB
Оценка:  5 (Голосов: 1)
Поблагодарили: 1
Поделиться ссылкой на эту раздачу с друзьями:
В контактеFacebookОдноклассникиTwitterLivejournalМой МирLiveinternet
 

 
Показать сообщения:    


Вы не можете начинать темы
Вы не можете отвечать на сообщения
Вы не можете редактировать свои сообщения
Вы не можете удалять свои сообщения
Вы не можете голосовать в опросах
Вы не можете прикреплять файлы к сообщениям
Вы можете скачивать файлы