Loading...
Error

Скачать Хеббёрн / Hebburn [01х01-03 из 6] (Кристин Джернон) [2012, комедия, HDTVRip] [MVI (ViruseProjec)] торрент без регистрации

 
Статистика раздачи
Размер:  759 MB   |    Скачан:  125 раз
Сидов:  1  [  0 KB/s  ]  
 
Автор Сообщение

МихаНЕзатор

[] 

Информация о фильме
Название: Хеббёрн
Оригинальное название: Hebburn
Год выхода: 2012
Жанр: комедия
Режиссер: Кристин Джернон
В ролях: Кимберли Никсон, Лиза Макгрилис, Джина МакКи, Виктория Эллиотт, Пэт Данн, Вик Ривз, Нил Грэйнджер и др.

О фильме: Джек и Сара в следствии гулянки-буханки в Вегасе стали муж и жена. И вот они едут в родной край Джека, в деревушку "Хеббёрн" - наверное единственное место на планете, где живут что ни на есть самые настоящие "деревенщины". А чего они там хотят? Да просто как-то оповестить родителей Джека о его незапланированной свадьбе и, что у них есть невеста и тут начинаются разные невероятные приколы, шутки и чисто Британский юмор...
(описание еще доработаем позже)

Страна: Великобритания
Студия: BBC Two
Продолжительность: 00:29:00
Перевод: Любительский (многоголосый закадровый) ViruseProject

Файл
Кодек: XviD
Качество: HDTVRip
Видео: 720x400 (1.80:1), 25 fps, XviD build 50 ~1080 kbps avg, 0.15 bit/pixel
Звук: 48 kHz, MPEG Layer 3, 2 ch, ~128.00 kbps avg
Субтитры: нет



Релиз от: ViruseProject

Озвучка:
48 kbps (Сергей Павловский )
Pro-Snip (Дмитрий Иванов )
Дмитрий Кравченко
Зая (Лидия Левченко)
Ёлка (Елена Емельянова)
marviha (Марина Видякина)

Перевод: KingFisheR22l (Борис Фишер)
Монтаж, сведение звука: viruse (Виталий Емельянов)
Видео приготовил: viruse (Виталий Емельянов)
Общее
Полное имя : C:UsersAmberDesktopHebburnHebburn.s01E01..avi
Формат : AVI
Формат/Информация : Audio Video Interleave
Размер файла : 253 Мбайт
Продолжительность : 29 м.
Общий поток : 1219 Кбит/сек

Видео
Идентификатор : 0
Формат : MPEG-4 Visual
Профиль формата : Advanced Simple@L5
Параметр BVOP формата : 1
Параметр QPel формата : Нет
Параметр GMC формата : Без точки перехода
Параметр матрицы формата : Default (MPEG)
Идентификатор кодека : XVID
Идентификатор кодека/Подсказка : XviD
Продолжительность : 29 м.
Битрейт : 1081 Кбит/сек
Ширина : 720 пикселей
Высота : 400 пикселей
Соотношение сторон : 16:9
Частота кадров : 25,000 кадров/сек
Цветовое пространство : YUV
Субдискретизация насыщенности : 4:2:0
Битовая глубина : 8 бит
Тип развёртки : Прогрессивная
Метод сжатия : С потерями
Бит/(Пиксели*Кадры) : 0.150
Размер потока : 224 Мбайт (89%)
Библиотека кодирования : XviD 1.2.1 (UTC 2008-12-04)

Аудио
Идентификатор : 1
Формат : MPEG Audio
Версия формата : Version 1
Профиль формата : Layer 3
Идентификатор кодека : 55
Идентификатор кодека/Подсказка : MP3
Продолжительность : 29 м.
Продолжительность оригинала : 29 м.
Вид битрейта : Постоянный
Битрейт : 128 Кбит/сек
Каналы : 2 канала
Частота : 48,0 КГц
Метод сжатия : С потерями
Размер потока : 26,6 Мбайт (11%)
Выравнивание : Соединение по промежуткам
Продолжительность промежутка : 40 мс. (1,00 видеокадр)
Библиотека кодирования : LAME3.98r
Настройки программы : -m s -V 4 -q 2 -lowpass 17 -b 128

Общее
Полное имя : C:UsersAmberDesktopHebburnHebburn.s01E02..avi
Формат : AVI
Формат/Информация : Audio Video Interleave
Размер файла : 253 Мбайт
Продолжительность : 28 м.
Общий поток : 1250 Кбит/сек

Видео
Идентификатор : 0
Формат : MPEG-4 Visual
Профиль формата : Advanced Simple@L5
Параметр BVOP формата : 1
Параметр QPel формата : Нет
Параметр GMC формата : Без точки перехода
Параметр матрицы формата : Default (MPEG)
Идентификатор кодека : XVID
Идентификатор кодека/Подсказка : XviD
Продолжительность : 28 м.
Битрейт : 1113 Кбит/сек
Ширина : 720 пикселей
Высота : 400 пикселей
Соотношение сторон : 16:9
Частота кадров : 25,000 кадров/сек
Цветовое пространство : YUV
Субдискретизация насыщенности : 4:2:0
Битовая глубина : 8 бит
Тип развёртки : Прогрессивная
Метод сжатия : С потерями
Бит/(Пиксели*Кадры) : 0.155
Размер потока : 225 Мбайт (89%)
Библиотека кодирования : XviD 1.2.1 (UTC 2008-12-04)

Аудио
Идентификатор : 1
Формат : MPEG Audio
Версия формата : Version 1
Профиль формата : Layer 3
Идентификатор кодека : 55
Идентификатор кодека/Подсказка : MP3
Продолжительность : 28 м.
Продолжительность оригинала : 28 м.
Вид битрейта : Постоянный
Битрейт : 128 Кбит/сек
Каналы : 2 канала
Частота : 48,0 КГц
Метод сжатия : С потерями
Размер потока : 25,9 Мбайт (10%)
Выравнивание : Соединение по промежуткам
Продолжительность промежутка : 40 мс. (1,00 видеокадр)
Библиотека кодирования : LAME3.98r
Настройки программы : -m s -V 4 -q 2 -lowpass 17 -b 128

Общее
Полное имя : C:UsersAmberDesktopHebburnHebburn.s01E03..avi
Формат : AVI
Формат/Информация : Audio Video Interleave
Размер файла : 253 Мбайт
Продолжительность : 28 м.
Общий поток : 1231 Кбит/сек
Программа кодирования : VirtualDubMod 1.5.10.2 (build 2540/release)
Библиотека кодирования : VirtualDubMod build 2540/release

Видео
Идентификатор : 0
Формат : MPEG-4 Visual
Профиль формата : Advanced Simple@L5
Параметр BVOP формата : 1
Параметр QPel формата : Нет
Параметр GMC формата : Без точки перехода
Параметр матрицы формата : Default (MPEG)
Идентификатор кодека : XVID
Идентификатор кодека/Подсказка : XviD
Продолжительность : 28 м.
Битрейт : 1093 Кбит/сек
Ширина : 720 пикселей
Высота : 400 пикселей
Соотношение сторон : 16:9
Частота кадров : 25,000 кадров/сек
Цветовое пространство : YUV
Субдискретизация насыщенности : 4:2:0
Битовая глубина : 8 бит
Тип развёртки : Прогрессивная
Метод сжатия : С потерями
Бит/(Пиксели*Кадры) : 0.152
Размер потока : 225 Мбайт (89%)
Библиотека кодирования : XviD 1.2.1 (UTC 2008-12-04)

Аудио
Идентификатор : 1
Формат : MPEG Audio
Версия формата : Version 1
Профиль формата : Layer 3
Идентификатор кодека : 55
Идентификатор кодека/Подсказка : MP3
Продолжительность : 28 м.
Вид битрейта : Постоянный
Битрейт : 128 Кбит/сек
Каналы : 2 канала
Частота : 48,0 КГц
Метод сжатия : С потерями
Размер потока : 26,3 Мбайт (10%)
Выравнивание : Соединение по промежуткам
Продолжительность промежутка : 40 мс. (1,00 видеокадр)
Время предзагрузки промежутка : 504 мс.
Библиотека кодирования : LAME3.98r
Настройки программы : -m s -V 4 -q 2 -lowpass 17 -b 128



Скачать Хеббёрн.Hebburn.[01х01-03.из.6].(Кристин.Джернон).[2012.комедия.HDTVRip].[MVI.(ViruseProjec)].torrent без регистрации
Золото ЗОЛОТАЯ РАЗДАЧА! СКАЧАННОЕ НЕ ЗАСЧИТЫВАЕТСЯ! Золото
Дата: Зарегистрирован   [ Тип: внутренний ] Как тут cкачать?
MAGNET ссылка
MAGNET ссылка


Скачать .torrent

16 KB

Статус: проверено DHT
Скачан: торрент - 125 раз, раздача полностью - 2 раз
Размер: 759 MB
Оценка:  - (Голосов: 0)
Поблагодарили: 0
Поделиться ссылкой на эту раздачу с друзьями:
В контактеFacebookОдноклассникиTwitterLivejournalМой МирLiveinternet
 

 
Показать сообщения:    


Вы не можете начинать темы
Вы не можете отвечать на сообщения
Вы не можете редактировать свои сообщения
Вы не можете удалять свои сообщения
Вы не можете голосовать в опросах
Вы не можете прикреплять файлы к сообщениям
Вы можете скачивать файлы