Loading...
Error

Скачать Из рода волков / Волчья кровь / Wolfblood (сезон 01) (Эндрю Ганн, Деклан ОДвайр, Уильям Синклер) [2012, фэнтези, PDTVRip] [MVO (DreamRecords)] торрент без регистрации

 
Статистика раздачи
Размер:  3,51 GB   |    Скачан:  238 раз
Сидов:  1  [  0 KB/s  ]  
 
Автор Сообщение

МихаНЕзатор

[] 

Название: Волчья кровь
Оригинальное название: Wolfblood
Год выпуска: 2012
Жанр: фэнтези
Режиссер: Эндрю Ганн, Деклан ОДвайр, Уильям Синклер

В ролях: Айми Келли, Бобби Локвуд, Кедар Уильямс-Стирлинг, Луиза Конолли-Бёрнхем, Анджела Лонсдэйл, Shorelle Hepkin, Rachel Teate, Gabrielle Green, Джонатан Раджетт, Ниек Верстиг

Описание: Полуволки жили среди нас столетиями, скрывая свои нечеловеческие способности. Они держались обособленными группами. Мэдди и её родители были единственными полуволками на своей территории. Пока в один прекрасный день в школе Мэдди не появился новенький

Страна: Великобритания
Продолжительность: 00 x ~ 00:28:00
Перевод: Профессиональный (многоголосый, закадровый) - DreamRecords
Субтитры: Нет

Озвучка: Анастасия Флигина, Mila Mirelli, Владислав Данилов, Алексей Воленко
Перевод: Ольга Литинская
Работа со звуком: ed_rez
Постер: mystery

Релиз от:

Качество: PDTVRip
Формат: AVI
Видео: XviD, 608x352, 25 fps, ~1041 kbps, 0.19 bit/pixel
Аудио rus: 48 kHz, MPEG Layer 3, 2 ch, ~160.00 kbps
Аудио eng: 48 kHz, MPEG Layer 3, 2 ch, ~160.00 kbps

АНОНСЫ ПОПУЛЯРНЫХ РАЗДАЧ


27.04.2013 г. торент обновлён, добавлена 13 серия, сезон полностью!

01. Lone Wolf
02. Mysterious Developments
03. Family Ties / Семейные узы
04. Cry Wolf / Плакса
05. Occam's Razor / Бритва Оккама
06. Maddy Cool! / Уличные танцы
07. Dark Moon / Темная луна
08. Wolfsbane / Волчье зелье
09. A Quiet Night In
10. The Call of the Wild
11. Eolas
12. Caged
13. Irresistible
Complete name : Wolfblood.s01e01.Lone.Wolf.HDTVRip-DreamRecords.avi
Format : AVI
Format/Info : Audio Video Interleave
File size : 277 MiB
Duration : 28mn 9s
Overall bit rate : 1 377 Kbps
Writing application : VirtualDubMod 1.5.10.3 (build 2550/release)
Writing library : VirtualDubMod build 2550/release

Video
ID : 0
Format : MPEG-4 Visual
Format profile : Advanced Simple@L5
Format settings, BVOP : 1
Format settings, QPel : No
Format settings, GMC : No warppoints
Format settings, Matrix : Custom
Codec ID : XVID
Codec ID/Hint : XviD
Duration : 28mn 9s
Bit rate : 1 042 Kbps
Width : 608 pixels
Height : 352 pixels
Display aspect ratio : 1.727
Frame rate : 25.000 fps
Color space : YUV
Chroma subsampling : 4:2:0
Bit depth : 8 bits
Scan type : Progressive
Compression mode : Lossy
Bits/(Pixel*Frame) : 0.195
Stream size : 210 MiB (76%)
Writing library : XviD 1.2.1 (UTC 2008-12-04)

Audio #1
ID : 1
Format : MPEG Audio
Format version : Version 1
Format profile : Layer 3
Mode : Joint stereo
Mode extension : MS Stereo
Codec ID : 55
Codec ID/Hint : MP3
Duration : 28mn 8s
Bit rate mode : Constant
Bit rate : 160 Kbps
Channel(s) : 2 channels
Sampling rate : 48.0 KHz
Compression mode : Lossy
Stream size : 32.2 MiB (12%)
Alignment : Aligned on interleaves
Interleave, duration : 40 ms (1.00 video frame)
Interleave, preload duration : 504 ms
Writing library : LAME3.98.4

Audio #2
ID : 2
Format : MPEG Audio
Format version : Version 1
Format profile : Layer 3
Mode : Joint stereo
Mode extension : MS Stereo
Codec ID : 55
Codec ID/Hint : MP3
Duration : 28mn 9s
Bit rate mode : Constant
Bit rate : 160 Kbps
Channel(s) : 2 channels
Sampling rate : 48.0 KHz
Compression mode : Lossy
Stream size : 32.2 MiB (12%)
Alignment : Aligned on interleaves
Interleave, duration : 40 ms (1.00 video frame)
Interleave, preload duration : 504 ms
Writing library : LAME3.98.4



Скачать Из.рода.волков.Волчья.кровь.Wolfblood.(сезон.01).(Эндрю.Ганн.Деклан.ОДвайр.Уильям.Синклер).[2012.фэнтези.PDTVRip].[MVO.(DreamRecords)].torrent без регистрации
Золото ЗОЛОТАЯ РАЗДАЧА! СКАЧАННОЕ НЕ ЗАСЧИТЫВАЕТСЯ! Золото
Дата: Зарегистрирован   [ Тип: внутренний ] Как тут cкачать?
MAGNET ссылка
MAGNET ссылка


Скачать .torrent

19 KB

Статус: проверено DHT
Скачан: торрент - 238 раз, раздача полностью - 62 раз
Размер: 3,51 GB
Оценка:  - (Голосов: 0)
Поблагодарили: 4
Поделиться ссылкой на эту раздачу с друзьями:
В контактеFacebookОдноклассникиTwitterLivejournalМой МирLiveinternet
 

 

МихаНЕзатор

[] 

Раздача обновлена
 
Показать сообщения:    


Вы не можете начинать темы
Вы не можете отвечать на сообщения
Вы не можете редактировать свои сообщения
Вы не можете удалять свои сообщения
Вы не можете голосовать в опросах
Вы не можете прикреплять файлы к сообщениям
Вы можете скачивать файлы