Loading...
Error

Скачать Головокружение / Vertigo (Альфред Хичкок / Alfred Hitchcock) [1958 г., триллер, мелодрама, драма, детектив, BDRip-AVC] [Dub] + [Original] (Eng) + [Sub] (Rus, Eng) торрент без регистрации

 
Статистика раздачи
Размер:  2,18 GB   |    Скачан:  132 раза
Сидов:  1  [  0 KB/s  ]  
 
Автор Сообщение

leon030982

[] 

Головокружение / Vertigo
Год выпуска: 1958
Страна: США
Жанр: триллер, мелодрама, драма, детектив
Продолжительность: 02:08:27
Перевод: Профессиональный [полное дублирование] Blu-ray
Оригинал : английский
Cубтитры: русские, английские softsub (SRT)
Режиссёр: Альфред Хичкок / Alfred Hitchcock
В ролях:
Джеймс Стюарт
, Ким Новак, Барбара Бел Геддес, Том Хелмор, Генри Джонс, Рэймонд Бэйли, Эллен Корби, Константин Шэйн, Ли Патрик, Изабель Аналла, Джек Ано, Джон Бенсон, Маргарет Брэйтон, Пол Брайар, Жан Корбетт, Бруно Делла Сантина, Роксанн Делман, Молли Додд, Карло Дотто, Бесс Флауэрс, Джоан Гентон, Дон Джованни, Роланд Готти, Фред Грэхэм, Бак Харингтон, Альфред Хичкок, Джун Жослин, Дэвид МакЭлхаттон, Форбс Мюррэй
Описание:
Скотти Фергюсон - отставной сыщик, которого не назовешь баловнем судьбы: одинокий, оставшийся за бортом своей профессии, да еще и страдающий патологическим страхом высоты. Бывший коллега Гейвин Элстер просит его последить за своей женой Мэделин, одержимой идеей самоубийства.
Сыщик соглашается помочь приятелю, не подозревая, что женщина, за которой он следит, прекрасно знает о его миссии и всего лишь исполняет отведенную ей роль в прекрасно спланированном преступлении…


IMDB: 8.5/10 (138,620 votes) Тор 250: 48
Кинопоиск: 8.129 (6591 )
Сэмпл

Качество видео: BDRip-AVC исходник Blu-ray disc 1080p/BLUEBIRD
Формат: MKV
Видео кодек: H.264
Аудио кодек: AC3
Видео: 1056 x 572 (1.85 :1), 23.976 fps, 2038 Кбит/сек, 0.14 bit/pixel
Аудио 1: 48 kHz, AC3 Dolby Digital, 2/0 (L,R) ch, ~192.00 kbps avg дубляж

Аудио 2: 48 kHz, AC3 Dolby Digital, 2/0 (L,R) ch, ~192.00 kbps avg оригинал
Права на фильм были выкуплены самим режиссёром и составили наследство его дочери, так что новые поколения зрителей увидели этот фильм только в 1985 году.
В основе фильма лежит вольный пересказ романа «Из мира мертвых», написанного совместно Пьером Буало и Томом Нарсежаком.
Съёмки фильма проходили в период с 30 сентября 1957 по 19 декабря 1957.
Было снято также послесловие фильма, запрещенное европейской цензурой, однако не вошедшее и в оригинальную американскую версию. В ней мы видим более-менее вылечившегося Джона вместе с Мидж слушающего репортаж, посвященный поимке в Европе Гевина Элстера.
На роль Мэделин Хичкок планировал взять Веру Майлз, но та была вынуждена отказаться из-за беременности.
«Головокружение» — четвертый и последний совместный проект Альфреда Хичкока и Джеймса Стюарта.
Картину холодно восприняли как критики, так и зрители. Сокрушенный Хичкок обвинил в неудаче исполнителя главной роли Джеймса Стюарта, сказав, что он исчерпал себя и его лучшие годы позади. Больше Хичкок никогда не снимал Стюарта в своих фильмах, хотя до этого он слыл его любимчиком.
Во время съемок у Хичкока и Ким Новак были очень натянутые отношения. Во-первых, идеальной исполнительницей Мэделин Хичкок считал Веру Майлз, а Новак ему навязали студийные боссы, во-вторых, Ким переодически давала Хичкоку советы, чего режиссер не любил.
Камео Хичкока — в начале фильма проходит по улице в сером костюме.

Награды:
Оскар, 1959 год
Номинации: Лучшие декорации, Лучший звук
Сан-Себастьян, 1958 год
Победитель: Серебряная раковина, Приз Зулуеты за лучшую мужскую роль (Джеймс Стюарт)
x264 [info]: frame I:1335 Avg QP:17.13 size: 75423
x264 [info]: frame P:31503 Avg QP:19.97 size: 20454
x264 [info]: frame B:151958 Avg QP:21.44 size: 8024
x264 [info]: consecutive B-frames: 1.1% 0.5% 1.4% 8.2% 10.0% 51.1% 8.5% 8.7% 3.3% 5.0% 2.3%
x264 [info]: mb I I16..4: 6.3% 81.0% 12.7%
x264 [info]: mb P I16..4: 0.6% 4.1% 0.4% P16..4: 35.8% 41.2% 12.5% 0.0% 0.0% skip: 5.4%
x264 [info]: mb B I16..4: 0.0% 0.4% 0.0% B16..8: 37.0% 17.7% 2.7% direct: 4.2% skip:38.0% L0:46.2% L1:46.2% BI: 7.6%
x264 [info]: 8x8 transform intra:81.9% inter:61.7%
x264 [info]: direct mvs spatial:99.4% temporal:0.6%
x264 [info]: coded y,uvDC,uvAC intra: 88.2% 82.4% 63.2% inter: 21.0% 15.7% 1.4%
x264 [info]: i16 v,h,dc,p: 42% 17% 12% 29%
x264 [info]: i8 v,h,dc,ddl,ddr,vr,hd,vl,hu: 9% 8% 8% 10% 14% 13% 13% 11% 13%
x264 [info]: i4 v,h,dc,ddl,ddr,vr,hd,vl,hu: 12% 8% 5% 10% 14% 14% 13% 11% 13%
x264 [info]: i8c dc,h,v,p: 43% 24% 19% 15%
x264 [info]: Weighted P-Frames: Y:11.2% UV:5.8%
x264 [info]: ref P L0: 46.0% 10.3% 16.9% 7.8% 6.0% 4.8% 4.0% 2.3% 1.8% 0.1% 0.0%
x264 [info]: ref B L0: 65.2% 15.2% 8.2% 4.3% 3.2% 2.4% 1.3% 0.3%
x264 [info]: ref B L1: 89.8% 10.2%
General
Unique ID : 209514502907192034015148891387034893105 (0x9D9F0686B98A344C8814FA3C12707B31)
Complete name : D:\Golovokrujenie.1958.BDRip-AVC.mkv
Format : Matroska
Format version : Version 2
File size : 2.18 GiB
Duration : 2h 8mn
Overall bit rate mode : Variable
Overall bit rate : 2 428 Kbps
Encoded date : UTC 2013-01-23 19:36:03
Writing application : mkvmerge v5.8.0 ('No Sleep / Pillow') built on Sep 2 2012 15:37:04
Writing library : libebml v1.2.3 + libmatroska v1.3.0
Video
ID : 1
Format : AVC
Format/Info : Advanced Video Codec
Format profile : High@L4.1
Format settings, CABAC : Yes
Format settings, ReFrames : 9 frames
Codec ID : V_MPEG4/ISO/AVC
Duration : 2h 8mn
Bit rate mode : Variable
Bit rate : 2 038 Kbps
Maximum bit rate : 40.0 Mbps
Width : 1 056 pixels
Height : 572 pixels
Display aspect ratio : 16:9
Frame rate : 23.976 fps
Color space : YUV
Chroma subsampling : 4:2:0
Bit depth : 8 bits
Scan type : Progressive
Bits/(Pixel*Frame) : 0.141
Stream size : 1.79 GiB (82%)
Writing library : x264 core 129 r2230 1cffe9f
Encoding settings : cabac=1 / ref=9 / deblock=1:-3:-2 / analyse=0x3:0x113 / me=umh / subme=11 / psy=1 / psy_rd=0.95:0.05 / mixed_ref=1 / me_range=48 / chroma_me=1 / trellis=2 / 8x8dct=1 / cqm=0 / deadzone=21,11 / fast_pskip=0 / chroma_qp_offset=-3 / threads=6 / lookahead_threads=1 / sliced_threads=0 / nr=0 / decimate=1 / interlaced=0 / bluray_compat=0 / constrained_intra=0 / bframes=10 / b_pyramid=2 / b_adapt=2 / b_bias=0 / direct=3 / weightb=1 / open_gop=0 / weightp=2 / keyint=240 / keyint_min=24 / scenecut=40 / intra_refresh=0 / rc=2pass / mbtree=0 / bitrate=2038 / ratetol=1.0 / qcomp=0.70 / qpmin=0 / qpmax=69 / qpstep=4 / cplxblur=20.0 / qblur=0.5 / ip_ratio=1.40 / pb_ratio=1.20 / aq=2:0.9
Default : Yes
Forced : No
Audio #1
ID : 2
Format : AC-3
Format/Info : Audio Coding 3
Mode extension : CM (complete main)
Codec ID : A_AC3
Duration : 2h 8mn
Bit rate mode : Constant
Bit rate : 192 Kbps
Channel(s) : 2 channels
Channel positions : Front: L R
Sampling rate : 48.0 KHz
Bit depth : 16 bits
Compression mode : Lossy
Stream size : 176 MiB (8%)
Language : Russian
Default : Yes
Forced : No
Audio #2
ID : 3
Format : AC-3
Format/Info : Audio Coding 3
Mode extension : CM (complete main)
Codec ID : A_AC3
Duration : 2h 8mn
Bit rate mode : Constant
Bit rate : 192 Kbps
Channel(s) : 2 channels
Channel positions : Front: L R
Sampling rate : 48.0 KHz
Bit depth : 16 bits
Compression mode : Lossy
Stream size : 176 MiB (8%)
Language : English
Default : No
Forced : No
Text #1
ID : 4
Format : UTF-8
Codec ID : S_TEXT/UTF8
Codec ID/Info : UTF-8 Plain Text
Language : Russian
Default : No
Forced : No
Text #2
ID : 5
Format : UTF-8
Codec ID : S_TEXT/UTF8
Codec ID/Info : UTF-8 Plain Text
Language : English
Default : No
Forced : No



Скачать Головокружение.Vertigo.(Альфред.Хичкок.Alfred.Hitchcock).[1958.г.триллер.мелодрама.драма.детектив.BDRip-AVC].[Dub].+.[Original].(Eng).+.[Sub].(Rus.Eng).torrent без регистрации
Золото ЗОЛОТАЯ РАЗДАЧА! СКАЧАННОЕ НЕ ЗАСЧИТЫВАЕТСЯ! Золото
Дата: Зарегистрирован   [ Тип: внутренний ] Как тут cкачать?
MAGNET ссылка
MAGNET ссылка


Скачать .torrent

11 KB

Статус: проверено DHT
Скачан: торрент - 132 раз, раздача полностью - 116 раз
Размер: 2,18 GB
Оценка:  - (Голосов: 0)
Поблагодарили: 3
Поделиться ссылкой на эту раздачу с друзьями:
В контактеFacebookОдноклассникиTwitterLivejournalМой МирLiveinternet
 

 
Показать сообщения:    


Вы не можете начинать темы
Вы не можете отвечать на сообщения
Вы не можете редактировать свои сообщения
Вы не можете удалять свои сообщения
Вы не можете голосовать в опросах
Вы не можете прикреплять файлы к сообщениям
Вы можете скачивать файлы