Loading...
Error

Скачать Человек против киборга / Heatseeker (Альберт Пьюн / Albert Pyun) [1995 г., боевик, драма, фантастика, DVDRip] [MVO] (Ren-TV / West Video) торрент без регистрации

 
Статистика раздачи
Размер:  1,36 GB   |    Скачан:  117 раз
Сидов:  1  [  0 KB/s  ]  
 
Автор Сообщение

leon030982

[] 

Человек против киборга / Heatseeker


Год выпуска: 1995
Страна: США
Жанр: боевик, драма, фантастика
Продолжительность: 01:27:39
Перевод: Профессиональный (многоголосый, закадровый) [Ren-TV / West Video]

Режиссер: Альберт Пьюн / Albert Pyun

В ролях: Гэри Дэниелс, Кит Кук, Тина Коте, Норберт Вайссер, Том Мэтьюз, Селена Эм, Тони Мабеса, Аугусто Викта, Тим Томерсон, Бертон Ричардсон, Джаи Дж. Дж. Зури, Келли Монтгомери, Крис Агилар, Мэри Кортни, Ричард Олни...

Описание: В ближайшем будущем, когда на кикбоксерский ринг выйдут не люди, а киборги, чтобы руками и ногами доказать не только собственное мастерство, но техническое превосходство конструкторов-компьютерщиков над природой. Некая Компания «Сианон» запланировала проведение чемпионата по кикбоксингу, где наряду с прославленными во всем мире спортсменами будут участвовать существа, созданные в специальной лаборатории. Кикбоксер Ченс О'Брайен (Кит Кук) отказался от приглашения приехать на чемпионат, после чего руководство компании организовало операцию похищения невесты с тем, чтобы шантажом склонить его к согласию учавствовать в соревновании.
И вот в Лас-Вегасе должен состояться решающий бой между лучшим кикбоксером Чэнсом О’Брайеном и самым современным киборгом Зао (Гэри Дэниелс) — продуктом могущественной корпорации «Сианон», готовой на все ради мирового лидерства.


Автор релиза:
Качество видео: DVDRip
Формат файла: AVI
Видео: 640x480, 25.000 fps, MPEG-4 Visual, 2086 kbps
Аудио: 48 kHz, MP3, 2 ch, 128 kbps [Ren-TV / West Video]
General
Format : AVI
Format/Info : Audio Video Interleave
File size : 1.36 GiB
Duration : 1h 27mn
Overall bit rate : 2 224 Kbps
Director : Asianmaster
Writing application : VirtualDubMod 1.5.10.3 (build 2550/release)
Writing library : VirtualDubMod build 2550/release
Video
ID : 0
Format : MPEG-4 Visual
Format profile : Advanced Simple@L5
Format settings, BVOP : 2
Format settings, QPel : No
Format settings, GMC : No warppoints
Format settings, Matrix : Default (MPEG)
Muxing mode : Packed bitstream
Codec ID : XVID
Codec ID/Hint : XviD
Duration : 1h 27mn
Bit rate : 2 086 Kbps
Width : 640 pixels
Height : 480 pixels
Display aspect ratio : 4:3
Frame rate : 25.000 fps
Color space : YUV
Chroma subsampling : 4:2:0
Bit depth : 8 bits
Scan type : Progressive
Compression mode : Lossy
Bits/(Pixel*Frame) : 0.272
Stream size : 1.28 GiB (94%)
Writing library : XviD 1.2.1 (UTC 2008-12-04)
Audio
ID : 1
Format : MPEG Audio
Format version : Version 1
Format profile : Layer 3
Mode : Joint stereo
Codec ID : 55
Codec ID/Hint : MP3
Duration : 1h 27mn
Bit rate mode : Constant
Bit rate : 128 Kbps
Channel(s) : 2 channels
Sampling rate : 48.0 KHz
Compression mode : Lossy
Stream size : 80.2 MiB (6%)
Alignment : Aligned on interleaves
Interleave, duration : 40 ms (1.00 video frame)
Interleave, preload duration : 504 ms




Скачать Человек.против.киборга.Heatseeker.(Альберт.Пьюн.Albert.Pyun).[1995.г.боевик.драма.фантастика.DVDRip].[MVO].(Ren-TV.West.Video).torrent без регистрации
Золото ЗОЛОТАЯ РАЗДАЧА! СКАЧАННОЕ НЕ ЗАСЧИТЫВАЕТСЯ! Золото
Дата: Зарегистрирован   [ Тип: внутренний ] Как тут cкачать?
MAGNET ссылка
MAGNET ссылка


Скачать .torrent

14 KB

Статус: проверено DHT
Скачан: торрент - 117 раз, раздача полностью - 22 раз
Размер: 1,36 GB
Оценка:  - (Голосов: 0)
Поблагодарили: 0
Поделиться ссылкой на эту раздачу с друзьями:
В контактеFacebookОдноклассникиTwitterLivejournalМой МирLiveinternet
 

 
Показать сообщения:    


Вы не можете начинать темы
Вы не можете отвечать на сообщения
Вы не можете редактировать свои сообщения
Вы не можете удалять свои сообщения
Вы не можете голосовать в опросах
Вы не можете прикреплять файлы к сообщениям
Вы можете скачивать файлы