Loading...
Error

Скачать Витание в облаках / Мечтать не вредно / On peut toujours rљver (Пьер Ришар) [1991, комедия, DVDRip-AVC] [MVO] торрент без регистрации

 
Статистика раздачи
Размер:  2,18 GB   |    Скачан:  126 раз
Сидов:  1  [  0 KB/s  ]  
 
Автор Сообщение

Marsianka

[] 

Информация о фильме
Название: Витание в облаках (Мечтать не вредно)
Оригинальное название: On peut toujours rљver
Год выпуска: 1991
Жанр: комедия
Режиссер: Пьер Ришар
В ролях: Пьер Ришар, Смаин, Эдит Скоб, Пьер Палмаде, Жак Сейлер, Жак Ноло, Бернар Фрейд, Марк Беттон, Лорен Шпильфогель, Натали Оффре, Антея Синтракт, Жак Рамад, Патрик Мессе, Вероник Жене, Мустафа Эль Энка, Жан-Мари Галей, Люба Герчикофф, Ги Луре, Тьерри Рей, Паскаль Тернизьен, Жезабель Амато, Пьер Бэйот, Пьер Бело, Оскар Кастро, Арно Шеврье, Вероника Декамп, Мусс Диуф, Марк Файолль, Лоран Гамелон, Шарлотта Лео, Патрик Масье, Патрик Оливье, Марсель Филиппо, Мишель Сюш, Люк Теисьер

О фильме: Циничного миллиардера Шарля (Пьер Ришар) величают "императором", у него куча подчинённых, шикарная вилла и ложа в опере. В один прекрасный день ему осточертела вся эта буржуазная скука. Развлекаясь как-то раз в супермаркете мелким воровством, Шарль знакомится с жуликоватым пареньком по имени Рашид и заводит с ним дружбу. С этого дня "император" в компании Рашида совершает самые отвязные поступки, чем немало шокирует своё семейство и коллег по работе. Замечательная комедия, где режиссёром, сценаристом и исполнителем главной роли выступил сам "блондин в чёрном ботинке" - Пьер Ришар.



Выпущено: Франция, Fideline Films, Film Par Film, Films A2, Investimage 2, Investimage 3, Orly Films, Renn Productions, Sofiarp
Продолжительность: 01:43:18
Перевод: Профессиональный многоголосый

Файл
Кодек: Н264
Качество: DVDRip (AVC)
Видео: MPEG-4 AVC, 2706 Кбит/с, 928x576, 25.000 кадр/с
Звук: Русский, французский (AC3, 6 ch, 384 Кбит/с)

Семпл
Общее
Уникальный идентификатор : 248065115470131783863220833326900679237 (0xBA9F9A78B2452695B3F25942ECF79245)
Полное имя : D:Vitanie.v.oblokah.1991.DVDRip.(AVC).Marvel.mkv
Формат : Matroska
Версия формата : Version 1
Размер файла : 2,18 Гбайт
Продолжительность : 1 ч. 29 м.
Общий поток : 3477 Кбит/сек
Название фильма : On peut toujours rever 1991 [Marvel]
Дата кодирования : UTC 2013-01-24 07:27:55
Программа кодирования : mkvmerge v2.1.0 ('Another Place To Fall') built on Aug 19 2007 13:40:07
Библиотека кодирования : libebml v0.7.7 + libmatroska v0.8.1

Видео
Идентификатор : 1
Формат : AVC
Формат/Информация : Advanced Video Codec
Профиль формата : High@L4.1
Параметр CABAC формата : Да
Параметр ReFrames формата : 7 кадров
Идентификатор кодека : V_MPEG4/ISO/AVC
Продолжительность : 1 ч. 29 м.
Битрейт : 2706 Кбит/сек
Ширина : 928 пикселей
Высота : 576 пикселей
Соотношение сторон : 1,611
Частота кадров : 25,000 кадров/сек
Цветовое пространство : YUV
Субдискретизация насыщенности : 4:2:0
Битовая глубина : 8 бит
Тип развёртки : Прогрессивная
Бит/(Пиксели*Кадры) : 0.202
Размер потока : 1,66 Гбайт (76%)
Заголовок : On peut toujours rever 1991
Библиотека кодирования : x264 core 92 r1510 33d382a
Настройки программы : cabac=1 / ref=7 / deblock=1:-3:-3 / analyse=0x3:0x133 / me=umh / subme=10 / psy=1 / psy_rd=1.00:0.10 / mixed_ref=1 / me_range=64 / chroma_me=1 / trellis=2 / 8x8dct=1 / cqm=0 / deadzone=21,11 / fast_pskip=0 / chroma_qp_offset=-3 / threads=1 / sliced_threads=0 / nr=0 / decimate=1 / interlaced=0 / constrained_intra=0 / bframes=3 / b_pyramid=2 / b_adapt=2 / b_bias=0 / direct=3 / wpredb=1 / wpredp=2 / keyint=250 / keyint_min=25 / scenecut=40 / intra_refresh=0 / rc_lookahead=50 / rc=2pass / mbtree=1 / bitrate=2706 / ratetol=1.0 / qcomp=0.60 / qpmin=10 / qpmax=51 / qpstep=4 / cplxblur=20.0 / qblur=0.5 / ip_ratio=1.40 / aq=1:1.00
Язык : English
Default : Да
Forced : Нет

Аудио #1
Идентификатор : 2
Формат : AC-3
Формат/Информация : Audio Coding 3
Расширение режима : CM (complete main)
Параметр Endianness формата : Big
Идентификатор кодека : A_AC3
Продолжительность : 1 ч. 29 м.
Вид битрейта : Постоянный
Битрейт : 384 Кбит/сек
Каналы : 6 каналов
Расположение каналов : Front: L C R, Side: L R, LFE
Частота : 48,0 КГц
Битовая глубина : 16 бит
Метод сжатия : С потерями
Размер потока : 247 Мбайт (11%)
Заголовок : MVO
Язык : Russian
Default : Да
Forced : Нет

Аудио #2
Идентификатор : 3
Формат : AC-3
Формат/Информация : Audio Coding 3
Расширение режима : CM (complete main)
Параметр Endianness формата : Big
Идентификатор кодека : A_AC3
Продолжительность : 1 ч. 29 м.
Вид битрейта : Постоянный
Битрейт : 384 Кбит/сек
Каналы : 6 каналов
Расположение каналов : Front: L C R, Side: L R, LFE
Частота : 48,0 КГц
Битовая глубина : 16 бит
Метод сжатия : С потерями
Размер потока : 247 Мбайт (11%)
Язык : French
Default : Нет
Forced : Нет
Релиз от: Marvel



Скачать Витание.в.облаках.Мечтать.не.вредно.On.peut.toujours.rљver.(Пьер.Ришар).[1991.комедия.DVDRip-AVC].[MVO].torrent без регистрации
Золото ЗОЛОТАЯ РАЗДАЧА! СКАЧАННОЕ НЕ ЗАСЧИТЫВАЕТСЯ! Золото
Дата: Зарегистрирован   [ Тип: внутренний ] Как тут cкачать?
MAGNET ссылка
MAGNET ссылка


Скачать .torrent

11 KB

Статус: проверено DHT
Скачан: торрент - 126 раз, раздача полностью - 64 раз
Размер: 2,18 GB
Оценка:  - (Голосов: 0)
Поблагодарили: 1
Поделиться ссылкой на эту раздачу с друзьями:
В контактеFacebookОдноклассникиTwitterLivejournalМой МирLiveinternet
 

 
Показать сообщения:    


Вы не можете начинать темы
Вы не можете отвечать на сообщения
Вы не можете редактировать свои сообщения
Вы не можете удалять свои сообщения
Вы не можете голосовать в опросах
Вы не можете прикреплять файлы к сообщениям
Вы можете скачивать файлы