Loading...
Error

Скачать Кинг Конг / King Kong (Мериан К. Купер, Эрнест Б. Шодсак / Merian C. Cooper, Ernest B. Schoedsack) [1933, фэнтези, приключения, DVDRip-AVC] [Цветная версия] [DVO] (Twister) + Original Eng торрент без регистрации

 
Статистика раздачи
Размер:  1,45 GB   |    Скачан:  122 раза
Сидов:  1  [  0 KB/s  ]  
 
Автор Сообщение

leon030982

[] 

Кинг Конг / King Kong


Год выпуска: 1933
Страна: США
Жанр: фэнтези, приключения
Продолжительность: 01:40:18
Перевод: Профессиональный (двухголосый закадровый) [Twister]
Cубтитры: нет
Оригинальная аудиодорожка: английский

Режиссер: Мериан К. Купер, Эрнест Б. Шодсак / Merian C. Cooper, Ernest B. Schoedsack

В ролях: Фэй Рэй, Роберт Армстронг, Брюс Кэбот и другие

Описание: На отдаленном, диком острове научная экспедиция захватывает громадную человекообразную обезьяну и, не мудрствуя лукаво, привозит ее в Нью-Йорк для показа праздной публике.
Кто бы мог подумать, что этот жуткий монстр, способен на такое тонкое чувство, как любовь — эта чертова обезьяна, жить не может без миниатюрной и нежной главной героини…


Сэмпл: http://multi-up.com/822908
Качество видео: DVDRip-AVC
Формат видео: MKV
Видео: 720x544, 25 fps, AVC (H.264) ~1677 kbps avg, 0.171 bit/pixel
Аудио: Russian (48 kHz, Dolby AC3, 2 ch, 192 kbps) (Двухголосый, закадровый)
Аудио 2: English (48 kHz, Dolby AC3, 2 ch, 192 kbps)

Общее
Уникальный идентификатор : 173637994311341258632025206280842863496 (0x82A17615F8A665A99E5E49AE00DF6388)
Полное имя : E:\ФИЛЬМЫ В HD\KING KONG 1933\Кинг Конг (1933).mkv
Формат : Matroska
Версия формата : Version 1
Размер файла : 1,45 Гбайт
Продолжительность : 1 ч. 40 м.
Общий поток : 2064 Кбит/сек
Название фильма : Done with AutoMKV 0.98.4 httpc//forum.doom9.org/showthread.php?t=140178
Дата кодирования : UTC 2013-01-27 07:39:18
Программа кодирования : mkvmerge v2.4.2 ('Oh My God') built on Jan 18 2009 17:30:28
Библиотека кодирования : libebml v0.7.7 + libmatroska v0.8.1
Видео
Идентификатор : 1
Формат : AVC
Формат/Информация : Advanced Video Codec
Профиль формата : High@L4.0
Параметр CABAC формата : Да
Параметр ReFrames формата : 3 кадра
Идентификатор кодека : V_MPEG4/ISO/AVC
Продолжительность : 1 ч. 40 м.
Битрейт : 1677 Кбит/сек
Ширина : 700 пикселей
Высота : 544 пикселя
Соотношение сторон : 1,287
Частота кадров : 25,000 кадров/сек
Цветовое пространство : YUV
Субдискретизация насыщенности : 4:2:0
Битовая глубина : 8 бит
Тип развёртки : Прогрессивная
Бит/(Пиксели*Кадры) : 0.176
Размер потока : 1,15 Гбайт (79%)
Заголовок : 1933 Кинг Конг (в цвете)
Библиотека кодирования : x264 core 66 r1092 60f4cd8
Настройки программы : cabac=1 / ref=3 / deblock=1:-1:-1 / analyse=0x3:0x113 / me=umh / subme=9 / psy_rd=1.1:0.0 / mixed_ref=0 / me_range=16 / chroma_me=0 / trellis=0 / 8x8dct=1 / cqm=0 / deadzone=21,11 / chroma_qp_offset=-2 / threads=3 / nr=0 / decimate=1 / mbaff=0 / bframes=3 / b_pyramid=0 / b_adapt=2 / b_bias=0 / direct=3 / wpredb=1 / keyint=250 / keyint_min=25 / scenecut=40(pre) / rc=2pass / bitrate=1677 / ratetol=1.0 / qcomp=0.60 / qpmin=10 / qpmax=51 / qpstep=4 / cplxblur=20.0 / qblur=0.5 / vbv_maxrate=25000 / vbv_bufsize=14000 / ip_ratio=1.40 / pb_ratio=1.30 / aq=1:1.00
Default : Да
Forced : Нет
Аудио #1
Идентификатор : 2
Формат : AC-3
Формат/Информация : Audio Coding 3
Расширение режима : CM (complete main)
Идентификатор кодека : A_AC3
Продолжительность : 1 ч. 40 м.
Вид битрейта : Постоянный
Битрейт : 192 Кбит/сек
Каналы : 2 канала
Расположение каналов : Front: L R
Частота : 48,0 КГц
Битовая глубина : 16 бит
Метод сжатия : С потерями
Размер потока : 138 Мбайт (9%)
Язык : Russian
Default : Да
Forced : Нет
Аудио #2
Идентификатор : 3
Формат : AC-3
Формат/Информация : Audio Coding 3
Расширение режима : CM (complete main)
Идентификатор кодека : A_AC3
Продолжительность : 1 ч. 40 м.
Вид битрейта : Постоянный
Битрейт : 192 Кбит/сек
Каналы : 2 канала
Расположение каналов : Front: L R
Частота : 48,0 КГц
Битовая глубина : 16 бит
Метод сжатия : С потерями
Размер потока : 138 Мбайт (9%)
Язык : English
Default : Нет
Forced : Нет
Меню
00:00:00.000 : en:Chapter 1
00:06:51.600 : en:Chapter 2
00:11:50.160 : en:Chapter 3
00:18:29.520 : en:Chapter 4
00:24:18.720 : en:Chapter 5
00:32:04.080 : en:Chapter 6
00:36:23.280 : en:Chapter 7
00:42:41.880 : en:Chapter 8
00:49:15.000 : en:Chapter 9
00:57:39.240 : en:Chapter 10
01:02:36.360 : en:Chapter 11
01:10:25.920 : en:Chapter 12
01:15:01.200 : en:Chapter 13
01:20:01.320 : en:Chapter 14
01:26:54.840 : en:Chapter 15
01:34:30.480 : en:Chapter 16

27.01.13 Обновлено на лучшее качество



Скачать Кинг.Конг.King.Kong.(Мериан.К.Купер.Эрнест.Б.Шодсак.Merian.C.Cooper.Ernest.B.Schoedsack).[1933.фэнтези.приключения.DVDRip-AVC].[Цветная.версия].[DVO].(Twister).+.Original.Eng.torrent без регистрации
Золото ЗОЛОТАЯ РАЗДАЧА! СКАЧАННОЕ НЕ ЗАСЧИТЫВАЕТСЯ! Золото
Дата: Зарегистрирован   [ Тип: внутренний ] Как тут cкачать?
MAGNET ссылка
MAGNET ссылка


Скачать .torrent

15 KB

Статус: проверено DHT
Скачан: торрент - 122 раз, раздача полностью - 7 раз
Размер: 1,45 GB
Оценка:  - (Голосов: 0)
Поблагодарили: 2
Поделиться ссылкой на эту раздачу с друзьями:
В контактеFacebookОдноклассникиTwitterLivejournalМой МирLiveinternet
 

 
Показать сообщения:    


Вы не можете начинать темы
Вы не можете отвечать на сообщения
Вы не можете редактировать свои сообщения
Вы не можете удалять свои сообщения
Вы не можете голосовать в опросах
Вы не можете прикреплять файлы к сообщениям
Вы можете скачивать файлы