Loading...
Error

Скачать Зов крови / Lost Girl (сезон 03) (Стив ДиМарко и др.) [2013, фэнтези, мистика, драма, боевик, WEB-DLRip] [DVO (NewStudio)] торрент без регистрации

 
Статистика раздачи
Размер:  6,98 GB   |    Скачан:  252 раза
Сидов:  1  [  0 KB/s  ]  
 
Автор Сообщение

МихаНЕзатор

[] 

Название: Зов крови / Потерянная
Оригинальное название: Lost Girl
Год выпуска: 2013
Страна: Канада, Bo Series, Prodigy Pictures
Жанр: фэнтези, мистика, драма, боевик
Продолжительность: 03 х ~ 00:45:00
Перевод: Профессиональный (двухголосый, закадровый) - NewStudio
Субтитры: Отсутствуют
Режиссер: Стив ДиМарко, Роберт Либерман, Джон Фоусет, Пол Фокс, Дэвид Грин, Ли Роуз, Гэйл Харви

В ролях: Анна Силк, Кристен Холден-Рид, Ксения Соло, Ричард Хоуланд, Зои Палмер, К.К. Коллинз, Винсент Уолш, Лина Росслер, Афена Карканис, Кле Беннетт, Аарон Эшмор, Энтони Лемке, Эммануэль Вожье, Кейт Троттер, Инга Кадранел, Пол Амос, Арон Тэйджер, Джеймс Кейд, Грегори Финни, Дон Гоф, Кент Нолан, Джеймс Роджерс, Грэхам Вуд, Роб Арчер, Стивен Харт, Йен Дауни, Аарон Берг, Вирна Ким, Роберт Б. Кеннеди, Мэттью Дж. Тейлор, Ричард МакМиллан, Илайс Туфексис, Дебра МакКейб, Кейт Диникол, Джордж Чертов

Описание: Бо - суккуб. Выросшая в человеческой семье она не знала о своей истинной природе, считая себя фриком, а неумение контролировать сверхъестественный голод сделало ее одинокой беглянкой, оставляющей после себя череду трупов. Все меняется, когда Бо попадает в поле зрения кланов Фэйри, объяснивших ей кто она. Не желая выбирать между кланами Света и Тьмы, Бо решает занять сторону людей. Ей помогают юная русская воровка Кензи, детектив-оборотень Дайсон и доктор Лорен, занимающаяся изучением Фэйри.



Перевод: PtyZa
Озвучка: Александр Дасевич, Ирина Воронова
Работа со звуком: Baggio
Рип видео: Koss
Постер: Vortex

Качество: WEB-DLRip
Формат: AVI
Видео кодек: XviD
Аудио кодек: MP3
Видео: XviD, 1472 Кбит/с, 720x400
Аудио rus: 48 kHz, MPEG Layer 3, 2 ch, 128 kbps avg
Аудио eng: 48 kHz, MPEG Layer 3, 2 ch, 128 kbps avg

Релиз от:

18.04.2013 г. торент обновлён, добавлена 13 серия, сезон поностью!

01. Феи в клетке / Caged Fae
02. Подземка / Subterrfaenean
03. ИнФейкция / Confaegion
04. ПомутФейние / Fae-de to Black
05. Феи с широко закрытыми глазами / Faes Wide Shut
06. Масштаб Кензи / The Kenzi Scale
07. Дом, милый дом / There's Bo Place Like Home
08. Fae-ge Against the Machine
09. The Ceremony
10. Delinquents
11. Adventures in Fae-bysitting
12. Hail, Hale
Формат : AVI
Формат/Информация : Audio Video Interleave
Размер файла : 550 Мбайт
Продолжительность : 44 м.
Общий поток : 1738 Кбит/сек
Программа кодирования : VirtualDubMod 1.5.10.2 (build 2540/release)
Библиотека кодирования : VirtualDubMod build 2540/release

Видео
Идентификатор : 0
Формат : MPEG-4 Visual
Профиль формата : Advanced Simple@L5
Параметр BVOP формата : 2
Параметр QPel формата : Нет
Параметр GMC формата : Без точки перехода
Параметр матрицы формата : Default (MPEG)
Идентификатор кодека : XVID
Идентификатор кодека/Подсказка : XviD
Продолжительность : 44 м.
Битрейт : 1468 Кбит/сек
Ширина : 720 пикс.
Высота : 400 пикс.
Соотношение сторон : 16:9
Частота кадров : 23,976 кадр/сек
Цветовое пространство : YUV
Подвыборка цветности : 4:2:0
Битовая глубина : 8 бит
Тип развёртки : Прогрессивная
Метод сжатия : С потерями
Бит/(Пиксели*Кадры) : 0.213
Размер потока : 465 Мбайт (84%)
Библиотека кодирования : XviD 65

Аудио #1
Идентификатор : 1
Формат : MPEG Audio
Версия формата : Version 1
Профиль формата : Layer 3
Режим : Joint stereo
Расширение режима : MS Stereo
Идентификатор кодека : 55
Идентификатор кодека/Подсказка : MP3
Продолжительность : 44 м.
Вид битрейта : Постоянный
Битрейт : 128 Кбит/сек
Каналы : 2 канала
Частота : 48,0 КГц
Метод сжатия : С потерями
Размер потока : 40,5 Мбайт (7%)
Выравнивание : Соединение по промежуткам
Продолжительность промежутка : 42 мс. (1,00 видеокадр)
Время предзагрузки промежутка : 504 ms

Аудио #2
Идентификатор : 2
Формат : MPEG Audio
Версия формата : Version 1
Профиль формата : Layer 3
Режим : Joint stereo
Идентификатор кодека : 55
Идентификатор кодека/Подсказка : MP3
Продолжительность : 44 м.
Вид битрейта : Постоянный
Битрейт : 128 Кбит/сек
Каналы : 2 канала
Частота : 48,0 КГц
Метод сжатия : С потерями
Размер потока : 40,5 Мбайт (7%)
Выравнивание : Соединение по промежуткам
Продолжительность промежутка : 42 мс. (1,00 видеокадр)
Время предзагрузки промежутка : 504 ms
Библиотека кодирования : LAME3.99r
Настройки программы : -m j -V 4 -q 2 -lowpass 17 -b 128



Скачать Зов.крови.Lost.Girl.(сезон.03).(Стив.ДиМарко.и.др.).[2013.фэнтези.мистика.драма.боевик.WEB-DLRip].[DVO.(NewStudio)].torrent без регистрации
Золото ЗОЛОТАЯ РАЗДАЧА! СКАЧАННОЕ НЕ ЗАСЧИТЫВАЕТСЯ! Золото
Дата: Зарегистрирован   [ Тип: внутренний ] Как тут cкачать?
MAGNET ссылка
MAGNET ссылка


Скачать .torrent

19 KB

Статус: проверено DHT
Скачан: торрент - 252 раз, раздача полностью - 216 раз
Размер: 6,98 GB
Оценка:  - (Голосов: 0)
Поблагодарили: 7
Поделиться ссылкой на эту раздачу с друзьями:
В контактеFacebookОдноклассникиTwitterLivejournalМой МирLiveinternet
 

 

МихаНЕзатор

[] 

Раздача обновлена
 
Показать сообщения:    


Вы не можете начинать темы
Вы не можете отвечать на сообщения
Вы не можете редактировать свои сообщения
Вы не можете удалять свои сообщения
Вы не можете голосовать в опросах
Вы не можете прикреплять файлы к сообщениям
Вы можете скачивать файлы