Loading...
Error

Скачать Спартак: Война проклятых / Spartacus: War of the Damned (Сезон 3, серии 01-08 из 10) (Майкл Херст) [2013, боевик, драма, приключения, биография, история, HDTV] [720p] [Original] + [Rus] (Notabenoid) торрент без регистрации

 
Статистика раздачи
Размер:  11,22 GB   |    Скачан:  249 раз
Сидов:  1  [  0 KB/s  ]  
 
Автор Сообщение

leon030982

[] 

Спартак: Война проклятых / Spartacus: War of the Damned
Третий и заключительный сезон популярного псевдоисторического сериала "Спартак".



Год выпуска: 2013
Страна: США / Starz
Жанр: боевик, драма, приключения, биография, история
Продолжительность: ~ 50 мин

Перевод: Отсутствует
Русские субтитры: есть
Автор перевода: Notabenoid

Режиссёр: Майкл Херст

В ролях: Лиам МакИнтайр, Ману Беннет, Дастин Клер, Дэниэл Фьюрриджел, Тодд Ласанс, Саймон Меррелс, Синтия Аддай-Робинсон, Эллен Холлман и др

Описание: К восстанию Спартака присоединились тысячи. Вместе с Криксом и Ганником он побеждает одного римского командира за другим. Отчаявшись, Рим обращается за помощью к богатому, амбициозному Марку Крассу и молодому Юлию Цезарю.

Доп. информация: 8.7/10

Качество: HDTV
Формат: MKV
Видео кодек: H.264
Аудио кодек: AC3
Видео: 1280x720 (16:9), 23.976 fps, ~3000 kbps, 0.147 bit/pixel
Аудио: 48 kHz, AC3 Dolby Digital, 3/2 (L,C,R,l,r), ~384.00 kbps avg

Сериал содержит сцены насилия и сексуального характера, не рекомендуется к просмотру лицам до 18 лет.
General
Unique ID : 234504426134835179512789006631866076761 (0xB06BE8DE10A13222A16D191776AE0E59)
Complete name : C:\Documents and Settings\FILM\Spartacus\Spartacus.Season.3.HDTV\Spartacus.S03E01.720p.mkv
Format : Matroska
File size : 1.22 GiB
Duration : 50mn 46s
Overall bit rate : 3 438 Kbps
Encoded date : UTC 2013-01-26 03:06:07
Writing application : mkvmerge v6.0.0 ('Coming Up For Air') built on Jan 20 2013 09:52:00
Writing library : libebml v1.3.0 + libmatroska v1.4.0

Video
ID : 1
Format : AVC
Format/Info : Advanced Video Codec
Format profile : [url=mailto:High@L4.1]High@L4.1[/url]
Format settings, CABAC : Yes
Format settings, ReFrames : 5 frames
Codec ID : V_MPEG4/ISO/AVC
Duration : 50mn 46s
Bit rate : 2 986 Kbps
Width : 1 280 pixels
Height : 720 pixels
Display aspect ratio : 16:9
Frame rate : 23.976 fps
Color space : YUV
Chroma subsampling : 4:2:0
Bit depth : 8 bits
Scan type : Progressive
Bits/(Pixel*Frame) : 0.135
Stream size : 1.06 GiB (87%)
Writing library : x264 core 129 r2245 bc13772
Encoding settings : cabac=1 / ref=5 / deblock=1:0:0 / analyse=0x3:0x113 / me=umh / subme=8 / psy=1 / psy_rd=1.00:0.00 / mixed_ref=1 / me_range=16 / chroma_me=1 / trellis=1 / 8x8dct=1 / cqm=0 / deadzone=21,11 / fast_pskip=1 / chroma_qp_offset=-2 / threads=18 / lookahead_threads=3 / sliced_threads=0 / nr=0 / decimate=1 / interlaced=0 / bluray_compat=0 / constrained_intra=0 / bframes=3 / b_pyramid=2 / b_adapt=2 / b_bias=0 / direct=3 / weightb=1 / open_gop=0 / weightp=2 / keyint=250 / keyint_min=23 / scenecut=40 / intra_refresh=0 / rc_lookahead=50 / rc=crf / mbtree=1 / crf=18.0 / qcomp=0.60 / qpmin=0 / qpmax=69 / qpstep=4 / ip_ratio=1.40 / aq=1:1.00
Language : English
Matrix coefficients : BT.709-5, BT.1361, IEC 61966-2-4 709, SMPTE RP177

Audio
ID : 2
Format : AC-3
Format/Info : Audio Coding 3
Mode extension : CM (complete main)
Codec ID : A_AC3
Duration : 50mn 46s
Bit rate mode : Constant
Bit rate : 384 Kbps
Channel(s) : 6 channels
Channel positions : Front: L C R, Side: L R, LFE
Sampling rate : 48.0 KHz
Bit depth : 16 bits
Compression mode : Lossy
Stream size : 139 MiB (11%)
Внимание! Раздача ведётся путём добавления новых серий; при каждом добавлении создаётся новый торрент. Чтобы начать докачку новой серии, пользователям необходимо сделать следующее:
(1) остановить скачивание,
(2) удалить старый торрент у себя из клиента (старые серии удалять не надо),
(3) скачать новый торрент и запустить его у себя в клиенте вместо старого, при этом указать клиенту путь в старую папку куда и должно происходить скачивание новых серий.
Ваш клиент при этом должен произвести хеширование (проверку) старой папки (если не производит сам - помогите ему сделать это), и будет докачивать только те серии которых у вас ещё нет. Старые серии при этом не удаляются, а продолжают раздаваться!
Eсли вы уже удалили старые серии, то предотвратить повторную закачку старых серий можно, отжав галочку в соответствующих местах при запуске нового торрента. По возможности, желательно не удалять старые серии как можно дольше чтобы релизёр не столько продолжал раздавать старые серии, а смог сконцентрироваться на новых.

24.03.13 Добавлена 8-я серия!!!



Скачать Спартак.Война.проклятых.Spartacus.War.of.the.Damned.(Сезон.3.серии.01-08.из.10).(Майкл.Херст).[2013.боевик.драма.приключения.биография.история.HDTV].[720p].[Original].+.[Rus].(Notabenoid).torrent без регистрации
Золото ЗОЛОТАЯ РАЗДАЧА! СКАЧАННОЕ НЕ ЗАСЧИТЫВАЕТСЯ! Золото
Дата: Зарегистрирован   [ Тип: внутренний ] Как тут cкачать?
MAGNET ссылка
MAGNET ссылка


Скачать .torrent

30 KB

Статус: проверено DHT
Скачан: торрент - 249 раз, раздача полностью - 1 раз
Размер: 11,22 GB
Оценка:  5 (Голосов: 3)
Поблагодарили: 5
Поделиться ссылкой на эту раздачу с друзьями:
В контактеFacebookОдноклассникиTwitterLivejournalМой МирLiveinternet
 

 

leon030982

[] 

вот и дождались ab теперь осталось дождаться озвучку LostFilm bp
 

leon030982

[] 

25.02.13 Добавлена 4-я серия!!
 

leon030982

[] 

02.03.13 Добавлена 5-я серия!!! az
 

leon030982

[] 

7-я серия ay az
 
Показать сообщения:    


Вы не можете начинать темы
Вы не можете отвечать на сообщения
Вы не можете редактировать свои сообщения
Вы не можете удалять свои сообщения
Вы не можете голосовать в опросах
Вы не можете прикреплять файлы к сообщениям
Вы можете скачивать файлы