Loading...
Error

Скачать Пэт Гэрретт и Билли Кид / Pat Garrett & Billy the Kid (Сэм Пекинпа / Sam Peckinpah) [1973, драма, история, вестерн, DVDRip-AVC] [MVO] + [original] торрент без регистрации

 
Статистика раздачи
Размер:  1,44 GB   |    Скачан:  111 раз

Полного источника не было: 26 минут

 
Автор Сообщение

leon030982

[] 

Пэт Гэрретт и Билли Кид / Pat Garrett & Billy the Kid

Слоган: «Best of enemies. Deadliest of friends.»


Год выпуска: 1973
Страна: США
Жанр: драма, история, вестерн
Продолжительность: 02:01:54
Перевод: Профессиональный (многоголосый, закадровый)
Cубтитры: нет
Навигация по главам: есть

Режиссер: Сэм Пекинпа / Sam Peckinpah
Сценарий: Руди Вёрлицер / Rudy Wurlitzer
Продюсер: Гордон Кэрролл / Gordon Carroll
Оператор: Джон Кокийон / John Coquillon
Композитор: Боб Дилан / Bob Dylan

В ролях: Джеймс Коберн (Sheriff Pat Garrett), Крис Кристофферсон (William H. Bonney), Боб Дилан (Alias), Ричард Джэкел (Sheriff Kip McKinney), Кэти Хурадо (Mrs. Baker), Чилл Уиллс (Lemuel), Джейсон Робардс (Gov. Lew Wallace), Р.Г. Армстронг (Deputy Sheriff Bob Ollinger), Эмилио Фернандес (Paco), Л. К. Джонс (Black Harris), Слим Пикенс (Sheriff Colin Baker), Чарльз Мартин Смит (Charlie Bowdre)
Бюджет: $4 638 783
Мировая премьера: 23 мая 1973
Описание: Джеймс Кобурн исполняет роль Пэта Гарретта - бывшего уголовника, прожженного циника и хладнокровного стрелка, который ради того, чтобы выжить - готов надеть шерифскую звезду и отправиться «за головой» своего бывшего «кореша» Билли.
Гроза Дикого Запада, Билли Кид, которого здесь вальяжно играет Крис Кристофферсон, видит мир иначе. «Времена меняются, а я - нет»,- говорит он своему бывшему подельнику Пэту. Начинается роковое противостояние между бывшими друзьями…

kinopoisk.ru: 7.990 (142)
imdb.com: 7.30 (6 766)
MPAA: R - Лицам до 17 лет обязательно присутствие взрослого
Качество: DVDRip
Формат: MKV
Видеокодек: AVC
Аудиокодек: AC3
Видео: 718x348@850x348 (2.44:1); 1301 Kbps; 23,976 fps; 0,217 bpp
Аудио №1: Russian; Dolby Digital Audio / 1.0 / 48 kHz / 192 kbps
Аудио №2: English; Dolby Digital Audio / 1.0 / 48 kHz / 192 kbps

General
UniqueID : 207436692203261180047488896309730534441 (0x9C0EDA8C99AB7160908D0974DA58E429)
Complete name : Pat Garrett & Billy the Kid.mkv
Format : Matroska
File size : 1.44 GiB
Duration : 2h 1mn
Overall bit rate : 1 687 Kbps
Encoded date : UTC 2011-02-14 08:21:32
Writing application : mkvmerge v4.5.0 ('Speed of Light') built on Feb 1 2011 02:10:32
Writing library : libebml v1.2.0 + libmatroska v1.1.0
Video
ID : 1
Format : AVC
Format/Info : Advanced Video Codec
Format profile : High@L3.1
Format settings, CABAC : Yes
Format settings, ReFrames : 14 frames
Codec ID : V_MPEG4/ISO/AVC
Duration : 2h 1mn
Bit rate : 1 301 Kbps
Width : 718 pixels
Height : 348 pixels
Display aspect ratio : 2.40:1
Original display aspect ratio : 2.40:1
Frame rate : 23.976 fps
Color space : YUV
Chroma subsampling : 4:2:0
Bit depth : 8 bits
Scan type : Progressive
Bits/(Pixel*Frame) : 0.217
Stream size : 1.08 GiB (75%)
Writing library : x264 core 114 r1900 60ef1f8
Encoding settings : cabac=1 / ref=14 / deblock=1:-2:-1 / analyse=0x3:0x133 / me=umh / subme=10 / psy=1 / psy_rd=1.10:0.10 / mixed_ref=1 / me_range=18 / chroma_me=1 / trellis=2 / 8x8dct=1 / cqm=0 / deadzone=21,11 / fast_pskip=0 / chroma_qp_offset=-3 / threads=6 / sliced_threads=0 / nr=0 / decimate=0 / interlaced=0 / constrained_intra=0 / bframes=9 / b_pyramid=2 / b_adapt=2 / b_bias=0 / direct=3 / weightb=1 / open_gop=0 / weightp=2 / keyint=250 / keyint_min=23 / scenecut=40 / intra_refresh=0 / rc=2pass / mbtree=0 / bitrate=1301 / ratetol=1.0 / qcomp=0.70 / qpmin=0 / qpmax=69 / qpstep=4 / cplxblur=20.0 / qblur=0.5 / ip_ratio=1.40 / pb_ratio=1.30 / aq=1:1.00
Language : English
Color primaries : BT.470-6 System B, BT.470-6 System G, BT.601-6 625, BT.1358 625, BT.1700 625 PAL, BT.1700 625 SECAM
Transfer characteristics : BT.470-6 System B, BT.470-6 System G
Matrix coefficients : BT.470-6 System B, BT.470-6 System G, BT.601-6 625, BT.1358 625, BT.1700 625 PAL, BT.1700 625 SECAM, IEC 61966-2-4 601
Audio #1
ID : 2
Format : AC-3
Format/Info : Audio Coding 3
Mode extension : CM (complete main)
Codec ID : A_AC3
Duration : 2h 1mn
Bit rate mode : Constant
Bit rate : 192 Kbps
Channel(s) : 1 channel
Channel positions : Front: C
Sampling rate : 48.0 KHz
Bit depth : 16 bits
Compression mode : Lossy
Stream size : 167 MiB (11%)
Language : Russian
Audio #2
ID : 3
Format : AC-3
Format/Info : Audio Coding 3
Mode extension : CM (complete main)
Codec ID : A_AC3
Duration : 2h 1mn
Bit rate mode : Constant
Bit rate : 192 Kbps
Channel(s) : 1 channel
Channel positions : Front: C
Sampling rate : 48.0 KHz
Bit depth : 16 bits
Compression mode : Lossy
Stream size : 167 MiB (11%)
Language : English
Menu
00:00:00.000 : en:Fowl killings
00:06:02.200 : en:Times have changed
00:10:15.534 : en:New sheriff's target
00:13:32.701 : en:In poor company
00:17:25.868 : en:Loco Bob
00:22:59.001 : en:Meeting their Maker
00:27:37.134 : en:Smiling when he left
00:32:03.134 : en:Getting a posse started
00:36:45.468 : en:Billy
00:38:48.269 : en:Reward rejected
00:42:09.903 : en:Holes in the chest
00:48:07.871 : en:Baker's badge
00:52:43.705 : en:Hideout shootout
00:56:17.539 : en:Chisum's regulators
01:00:13.572 : en:Garrett and Chisum
01:04:52.206 : en:Where to next
01:08:52.206 : en:Keeping time with Lemuel
01:12:18.706 : en:Bullet for Alamosa Bill
01:18:27.841 : en:Sociable with Garrett
01:23:42.874 : en:When you see Billy
01:26:18.174 : en:Poe's cruel situation
01:29:27.841 : en:Ambushing Paco's ambushers
01:33:26.008 : en:Garrett's rest stop
01:36:32.308 : en:Hope they spell my name right
01:43:20.308 : en:Old Pete's house
01:47:30.608 : en:Idyll and vigil
01:53:19.242 : en:I killed the Kid
01:57:11.909 : en:Full circle
01:59:35.376 : en:End Credits

Код:

y4m [info]: 718x348p 32:27 @ 24000/1001 fps (cfr)
x264 [info]: using SAR=32/27
x264 [info]: using cpu capabilities: MMX2 SSE2Fast SSSE3 FastShuffle SSE4.1 Cache64
x264 [info]: profile High, level 3.1
x264 [info]: frame I:1612  Avg QP:18.46  size: 46987  PSNR Mean Y:44.64 U:47.66 V:48.15 Avg:45.47 Global:45.09
x264 [info]: frame P:31898 Avg QP:20.87  size: 15455  PSNR Mean Y:42.57 U:46.86 V:47.47 Avg:43.58 Global:42.87
x264 [info]: frame B:141866 Avg QP:22.58  size:  4376  PSNR Mean Y:41.23 U:46.35 V:47.04 Avg:42.40 Global:41.99
x264 [info]: consecutive B-frames:  1.5%  0.9%  3.2%  8.7% 11.9% 54.1%  9.8%  4.2%  3.4%  2.3%
x264 [info]: mb I  I16..4:  3.8% 82.9% 13.2%
x264 [info]: mb P  I16..4:  0.3% 10.3%  0.9%  P16..4: 46.6% 28.7% 10.4%  0.6%  0.6%    skip: 1.7%
x264 [info]: mb B  I16..4:  0.0%  0.5%  0.1%  B16..8: 38.7% 11.8%  3.7%  direct: 8.7%  skip:36.4%  L0:41.6% L1:38.8% BI:19.7%
x264 [info]: 8x8 transform intra:87.5% inter:60.7%
x264 [info]: direct mvs  spatial:99.8% temporal:0.2%
x264 [info]: coded y,uvDC,uvAC intra: 96.9% 89.9% 68.5% inter: 31.9% 28.2% 7.4%
x264 [info]: i16 v,h,dc,p: 42%  9% 27% 23%
x264 [info]: i8 v,h,dc,ddl,ddr,vr,hd,vl,hu: 13%  8% 11%  8% 12% 12% 11% 11% 13%
x264 [info]: i4 v,h,dc,ddl,ddr,vr,hd,vl,hu: 14%  7%  4%  9% 14% 15% 12% 12% 12%
x264 [info]: i8c dc,h,v,p: 44% 20% 20% 16%
x264 [info]: Weighted P-Frames: Y:25.6% UV:11.5%
x264 [info]: ref P L0: 37.6% 15.8% 15.5%  7.8%  5.6%  4.4%  3.6%  2.2%  1.8%  1.5%  1.3%  1.1%  0.9%  0.7%  0.1%  0.0%
x264 [info]: ref B L0: 65.9% 15.5%  6.2%  3.2%  2.4%  1.9%  1.6%  0.9%  0.8%  0.6%  0.5%  0.3%  0.1%
x264 [info]: ref B L1: 92.7%  7.3%
x264 [info]: SSIM Mean Y:0.9693389 (15.134db)
x264 [info]: PSNR Mean Y:41.506 U:46.458 V:47.128 Avg:42.641 Global:42.157 kb/s:1301.05
encoded 175376 frames, 9.46 fps, 1301.05 kb/s




Скачать Пэт.Гэрретт.и.Билли.Кид.Pat.Garrett.&.Billy.the.Kid.(Сэм.Пекинпа.Sam.Peckinpah).[1973.драма.история.вестерн.DVDRip-AVC].[MVO].+.[original].torrent без регистрации
Золото ЗОЛОТАЯ РАЗДАЧА! СКАЧАННОЕ НЕ ЗАСЧИТЫВАЕТСЯ! Золото
Дата: Зарегистрирован   [ Тип: внутренний ] Как тут cкачать?
MAGNET ссылка
MAGNET ссылка


Скачать .torrent

29 KB

Статус: проверено DHT
Скачан: торрент - 111 раз, раздача полностью - 3 раз
Размер: 1,44 GB
Оценка:  - (Голосов: 0)
Поблагодарили: 1
Поделиться ссылкой на эту раздачу с друзьями:
В контактеFacebookОдноклассникиTwitterLivejournalМой МирLiveinternet
 

 
Показать сообщения:    


Вы не можете начинать темы
Вы не можете отвечать на сообщения
Вы не можете редактировать свои сообщения
Вы не можете удалять свои сообщения
Вы не можете голосовать в опросах
Вы не можете прикреплять файлы к сообщениям
Вы можете скачивать файлы