Loading...
Error

Скачать Брубейкер / Brubaker (Стюарт Розенберг) [1980, драма, DVDRip] [MVO] торрент без регистрации

 
Статистика раздачи
Размер:  1,46 GB   |    Скачан:  115 раз
Сидов:  1  [  0 KB/s  ]  
 
Автор Сообщение

Marsianka

[] 

Страна: США
Жанр: драма
Год выпуска: 1980
Продолжительность: 02:05:13

Перевод: Профессиональный (многоголосый закадровый)
Оригинальная аудиодорожка: нет
Cубтитры: нет

Режиссер: Стюарт Розенберг /Stuart Rosenberg

В ролях: Роберт Редфорд /Robert Redford/, Яфет Котто /Yaphet Kotto/, Джейн Александер /Jane Alexander/, Мюррей Хэмилтон /Murray Hamilton/, Мэтт Кларк /Matt Clark/, Морган Фримэн /Morgan Freeman/, Дэвид Кит /David Keith/, Ричард Уорд /Richard Ward/, Тим МакИнтайр /Tim McIntire/, Йон Ван Несс /Jon Van Ness/...

Описание: В образцовую тюрьму штата прибывает новый заключенный. Хлебнув по полной программе прелестей тюремного быта, познакомившись с жестокостью охранников и нечеловеческими условиями содержания изнутри, он раскрывает свое инкогнито и оказывается новым директором тюрьмы Генри Брубейкером. Увиденное повергает Генри в шок: коррупция, рабство и нелегальный бизнес. Теперь Брубейкер намерен положить конец безобразиям, творящимся в тюрьме. но всегда найдутся несогласные - те, кому выгоден беспредел. Заключенные поначалу встречают его идею в штыки. Но хуже другое - что-либо менять в сложившейся ситуации не желают тюремная администрация и местные бизнесмены. И те и другие удачно наживаются на использовании труда заключенных. И они готовы бороться до конца
Фильм основан на реальных событиях. Новый начальник тюрьмы Брубэйкер (Редфорд), реформатор по натуре, стремится сломать практику поборов с заключенных, существующую в среде тюремного персонала. Для этого он поступает в тюрьму под видом одного из своих будущих воспитанников. Картина была весьма популярна в СССР в начале 80-х, и смотреться будет всегда, благодаря участию Редфорда. "Оскарная" номинация за лучший оригинальный сценарий.

Исходник: DVD9 R5
Тип релиза: DVDRip
Контейнер: AVI

Видео: 688x368 (1,870:1), 25 fps, XviD ~ 1207 kbps avg, 0.191 bit/pixel
Аудио: 48 kHz, Dolby AC3 5.1, 448 kbps

Раздача от:

Общее
Полное имя : Brubejker.1980.DVDRip_[Youtracker]_by_AVP Studio.avi
Формат : AVI
Формат/Информация : Audio Video Interleave
Размер файла : 1,46 Гбайт
Продолжительность : 2 ч. 5 м.
Общий поток : 1665 Кбит/сек
Программа кодирования : VirtualDubMod 1.5.10.3 | www.virtualdub-fr.org || (build 2550/release)
Библиотека кодирования : VirtualDubMod build 2550/release

Видео
Идентификатор : 0
Формат : MPEG-4 Visual
Профиль формата : Advanced Simple@L5
Параметр BVOP формата : 1
Параметр QPel формата : Нет
Параметр GMC формата : Без точки перехода
Параметр матрицы формата : Выборочная
Идентификатор кодека : XVID
Идентификатор кодека/Подсказка : XviD
Продолжительность : 2 ч. 5 м.
Битрейт : 1207 Кбит/сек
Ширина : 688 пикселей
Высота : 368 пикселей
Соотношение сторон : 1,870
Частота кадров : 25,000 кадров/сек
Цветовое пространство : YUV
Субдискретизация насыщенности : 4:2:0
Битовая глубина : 8 бит
Тип развёртки : Прогрессивная
Метод сжатия : С потерями
Бит/(Пиксели*Кадры) : 0.191
Размер потока : 1,06 Гбайт (73%)
Библиотека кодирования : XviD 65

Аудио
Идентификатор : 1
Формат : AC-3
Формат/Информация : Audio Coding 3
Расширение режима : CM (complete main)
Идентификатор кодека : 2000
Продолжительность : 2 ч. 5 м.
Вид битрейта : Постоянный
Битрейт : 448 Кбит/сек
Каналы : 6 каналов
Расположение каналов : Front: L C R, Side: L R, LFE
Частота : 48,0 КГц
Битовая глубина : 16 бит
Метод сжатия : С потерями
Размер потока : 401 Мбайт (27%)
Выравнивание : Разделение по промежуткам
Продолжительность промежутка : 40 мс. (1,00 видеокадр)
Время предзагрузки промежутка : 500 мс



Скачать Брубейкер.Brubaker.(Стюарт.Розенберг).[1980.драма.DVDRip].[MVO].torrent без регистрации
Золото ЗОЛОТАЯ РАЗДАЧА! СКАЧАННОЕ НЕ ЗАСЧИТЫВАЕТСЯ! Золото
Дата: Зарегистрирован   [ Тип: внутренний ] Как тут cкачать?
MAGNET ссылка
MAGNET ссылка


Скачать .torrent

15 KB

Статус: проверено DHT
Скачан: торрент - 115 раз, раздача полностью - 9 раз
Размер: 1,46 GB
Оценка:  - (Голосов: 0)
Поблагодарили: 1
Поделиться ссылкой на эту раздачу с друзьями:
В контактеFacebookОдноклассникиTwitterLivejournalМой МирLiveinternet
 

 
Показать сообщения:    


Вы не можете начинать темы
Вы не можете отвечать на сообщения
Вы не можете редактировать свои сообщения
Вы не можете удалять свои сообщения
Вы не можете голосовать в опросах
Вы не можете прикреплять файлы к сообщениям
Вы можете скачивать файлы