Loading...
Error

Скачать Брубейкер / Brubaker (Стюарт Розенберг) [1980, драма, DVDRip-AVC] [MVO]+[Оригинал] торрент без регистрации

 
Статистика раздачи
Размер:  2,19 GB   |    Скачан:  109 раз
Сидов:  1  [  0 KB/s  ]  
 
Автор Сообщение

Marsianka

[] 

Страна: США
Жанр: драма
Год выпуска: 1980
Продолжительность: 02:05:13

Перевод: Профессиональный (многоголосый закадровый)
Оригинальная аудиодорожка: английский
Cубтитры: нет

Режиссер: Стюарт Розенберг /Stuart Rosenberg

В ролях: Роберт Редфорд /Robert Redford/, Яфет Котто /Yaphet Kotto/, Джейн Александер /Jane Alexander/, Мюррей Хэмилтон /Murray Hamilton/, Мэтт Кларк /Matt Clark/, Морган Фримэн /Morgan Freeman/, Дэвид Кит /David Keith/, Ричард Уорд /Richard Ward/, Тим МакИнтайр /Tim McIntire/, Йон Ван Несс /Jon Van Ness/...

Описание: В образцовую тюрьму штата прибывает новый заключенный. Хлебнув по полной программе прелестей тюремного быта, познакомившись с жестокостью охранников и нечеловеческими условиями содержания изнутри, он раскрывает свое инкогнито и оказывается новым директором тюрьмы Генри Брубейкером. Увиденное повергает Генри в шок: коррупция, рабство и нелегальный бизнес. Теперь Брубейкер намерен положить конец безобразиям, творящимся в тюрьме. но всегда найдутся несогласные - те, кому выгоден беспредел. Заключенные поначалу встречают его идею в штыки. Но хуже другое - что-либо менять в сложившейся ситуации не желают тюремная администрация и местные бизнесмены. И те и другие удачно наживаются на использовании труда заключенных. И они готовы бороться до конца
Фильм основан на реальных событиях. Новый начальник тюрьмы Брубэйкер (Редфорд), реформатор по натуре, стремится сломать практику поборов с заключенных, существующую в среде тюремного персонала. Для этого он поступает в тюрьму под видом одного из своих будущих воспитанников. Картина была весьма популярна в СССР в начале 80-х, и смотреться будет всегда, благодаря участию Редфорда. "Оскарная" номинация за лучший оригинальный сценарий.

Исходник: DVD9 R5
Тип релиза: DVDRip-AVC
Контейнер: MKV

Видео: 712x548@1024x548 (1,857:1), 25 fps, H264 ~ 1857 kbps avg, 0.190 bit/pixel
Аудио: 48 kHz, Dolby AC3 5.1, 448 kbps
Аудио: 48 kHz, Dolby AC3 2.0, 192 kbps

Раздача от:

Общее
Полное имя : Brubejker.1980.DVDRip-AVC_[Youtracker]_by_AVP Studio.mkv
Формат : Matroska
Версия формата : Version 2
Размер файла : 2,19 Гбайт
Продолжительность : 2 ч. 5 м.
Общий поток : 2499 Кбит/сек
Название фильма : Brubejker.1980.DVDRip-AVC_[Youtracker]_by_AVP Studio
Дата кодирования : UTC 2013-01-26 08:29:22
Программа кодирования : mkvmerge v5.8.0 ('No Sleep / Pillow') built on Sep 2 2012 15:37:04
Библиотека кодирования : libebml v1.2.3 + libmatroska v1.3.0

Видео
Идентификатор : 1
Формат : AVC
Формат/Информация : Advanced Video Codec
Профиль формата : High@L4.1
Параметр CABAC формата : Да
Параметр ReFrames формата : 11 кадров
Идентификатор кодека : V_MPEG4/ISO/AVC
Продолжительность : 2 ч. 5 м.
Битрейт : 1857 Кбит/сек
Ширина : 712 пикселей
Высота : 548 пикселей
Соотношение сторон : 1,858
Частота кадров : 25,000 кадров/сек
Цветовое пространство : YUV
Субдискретизация насыщенности : 4:2:0
Битовая глубина : 8 бит
Тип развёртки : Прогрессивная
Бит/(Пиксели*Кадры) : 0.190
Размер потока : 1,58 Гбайт (72%)
Заголовок : Источник DVD
Библиотека кодирования : x264 core 119 r2106 07efeb4
Настройки программы : cabac=1 / ref=11 / deblock=1:-2:-1 / analyse=0x3:0x113 / me=umh / subme=9 / psy=1 / psy_rd=1.00:0.20 / mixed_ref=1 / me_range=32 / chroma_me=1 / trellis=1 / 8x8dct=1 / cqm=0 / deadzone=21,11 / fast_pskip=0 / chroma_qp_offset=-3 / threads=3 / sliced_threads=0 / nr=0 / decimate=0 / interlaced=0 / bluray_compat=0 / constrained_intra=0 / bframes=8 / b_pyramid=2 / b_adapt=2 / b_bias=0 / direct=3 / weightb=1 / open_gop=0 / weightp=2 / keyint=250 / keyint_min=25 / scenecut=40 / intra_refresh=0 / rc_lookahead=60 / rc=2pass / mbtree=1 / bitrate=1857 / ratetol=1.0 / qcomp=0.60 / qpmin=0 / qpmax=69 / qpstep=4 / cplxblur=20.0 / qblur=0.5 / ip_ratio=1.40 / aq=1:1.00
Язык : English
Default : Да
Forced : Нет

Аудио #1
Идентификатор : 2
Формат : AC-3
Формат/Информация : Audio Coding 3
Расширение режима : CM (complete main)
Идентификатор кодека : A_AC3
Продолжительность : 2 ч. 5 м.
Вид битрейта : Постоянный
Битрейт : 448 Кбит/сек
Каналы : 6 каналов
Расположение каналов : Front: L C R, Side: L R, LFE
Частота : 48,0 КГц
Битовая глубина : 16 бит
Метод сжатия : С потерями
Размер потока : 401 Мбайт (18%)
Заголовок : Источник DVD
Язык : Russian
Default : Да
Forced : Нет

Аудио #2
Идентификатор : 3
Формат : AC-3
Формат/Информация : Audio Coding 3
Расширение режима : CM (complete main)
Идентификатор кодека : A_AC3
Продолжительность : 2 ч. 5 м.
Вид битрейта : Постоянный
Битрейт : 192 Кбит/сек
Каналы : 2 канала
Расположение каналов : Front: L R
Частота : 48,0 КГц
Битовая глубина : 16 бит
Метод сжатия : С потерями
Размер потока : 172 Мбайт (8%)
Заголовок : Источник DVD
Язык : English
Default : Нет
Forced : Нет

Меню
00:00:00.000 : ru:00:00:00.000000000
00:05:00.000 : :00:05:00.000000000
00:10:00.000 : :00:10:00.000000000
00:15:00.000 : :00:15:00.000000000
00:20:00.000 : :00:20:00.000000000
00:25:00.000 : :00:25:00.000000000
00:30:00.000 : :00:30:00.000000000
00:35:00.000 : :00:35:00.000000000
00:40:00.000 : :00:40:00.000000000
00:45:00.000 : :00:45:00.000000000
00:50:00.000 : :00:50:00.000000000
00:55:00.000 : :00:55:00.000000000
01:00:00.000 : :01:00:00.000000000
01:05:00.000 : :01:05:00.000000000
01:10:00.000 : :01:10:00.000000000
01:15:00.000 : :01:15:00.000000000
01:20:00.000 : :01:20:00.000000000



Скачать Брубейкер.Brubaker.(Стюарт.Розенберг).[1980.драма.DVDRip-AVC].[MVO]+[Оригинал].torrent без регистрации
Золото ЗОЛОТАЯ РАЗДАЧА! СКАЧАННОЕ НЕ ЗАСЧИТЫВАЕТСЯ! Золото
Дата: Зарегистрирован   [ Тип: внутренний ] Как тут cкачать?
MAGNET ссылка
MAGNET ссылка


Скачать .torrent

12 KB

Статус: проверено DHT
Скачан: торрент - 109 раз, раздача полностью - 1 раз
Размер: 2,19 GB
Оценка:  - (Голосов: 0)
Поблагодарили: 1
Поделиться ссылкой на эту раздачу с друзьями:
В контактеFacebookОдноклассникиTwitterLivejournalМой МирLiveinternet
 

 
Показать сообщения:    


Вы не можете начинать темы
Вы не можете отвечать на сообщения
Вы не можете редактировать свои сообщения
Вы не можете удалять свои сообщения
Вы не можете голосовать в опросах
Вы не можете прикреплять файлы к сообщениям
Вы можете скачивать файлы