Loading...
Error

: / Munich ( / Steven Spielberg) [2005, , , , HDTVRip] [DUB] + [Sub (Rus)]

 
2,18 GB   |    :  3159
1  [  0 KB/s  ]  
 

leon030982

[] 

: / Munich

1972 , 11 . , ...
: 2005
: , ,
: , ,
: 2:37:00
1: ()

2: ( ) [Tycoon-studio] { }
3: ( ) [. & . ] { }
4: ( ) [. ] { }
: {, *.srt}
: / Steven Spielberg

: , , , , , , , , , .
: , 1972
: $70 000 000
: $47 403 685 | : + $80 286 022 = $127 689 707 | : $763 934
MPAA: R ( 17 !)


: HDTVRip
: HDTV 1080p
: AVI
: 704x400 (1.76:1), 25 fps, XviD build 73 ~1536 kbps avg, 0.22 bit/pixel
#1: 48 kHz, AC3 Dolby Digital, 3/2 (L,C,R,l,r) + LFE ch, ~448.00 kbps avg [Dub]
#2: 48 kHz, AC3 Dolby Digital, 3/2 (L,C,R,l,r) + LFE ch, ~448.00 kbps avg [Tycoon] { }
#3: 48 kHz, AC3 Dolby Digital, 3/2 (L,C,R,l,r) + LFE ch, ~448.00 kbps avg [ ] { }
#4: 48 kHz, AC3 Dolby Digital, 3/2 (L,C,R,l,r) + LFE ch, ~448.00 kbps avg [] { }
: 2236.08 Mb ( 2344699904 bytes ) ½ DVD
Vengeance: The True Story of an Israeli Counter-Terrorist Team. 1986 .
, .
, , , .

:

General
Complete name : C:\Users\Downloads\Encode\Mjunhen.2005.x264.HDTV.(1080p)\Munich.2005.HDTVRip.[R.G.AllFilms]\Munich.2005.HDTVRip.[R.G.AllFilms].avi
Format : AVI
Format/Info : Audio Video Interleave
Format profile : OpenDML
File size : 2.18 GiB
Duration : 2h 37mn
Overall bit rate : 1 991 Kbps
Movie name : Munich (2005) - HDTVRip by Juvelir
Writing application : VirtualDubMod 1.5.10.3 | www.virtualdub-fr.org || (build 2550/release)
Video
ID : 0
Format : MPEG-4 Visual
Format profile : Advanced Simple@L5
Format settings, BVOP : 2
Format settings, QPel : No
Format settings, GMC : No warppoints
Format settings, Matrix : Custom
Codec ID : XVID
Codec ID/Hint : XviD
Duration : 2h 37mn
Bit rate : 1 531 Kbps
Width : 704 pixels
Height : 400 pixels
Display aspect ratio : 16:9
Frame rate : 25.000 fps
Color space : YUV
Chroma subsampling : 4:2:0
Bit depth : 8 bits
Scan type : Progressive
Compression mode : Lossy
Bits/(Pixel*Frame) : 0.217
Stream size : 1.68 GiB (77%)
Writing library : XviD 73
Audio
ID : 1
Format : AC-3
Format/Info : Audio Coding 3
Mode extension : CM (complete main)
Format settings, Endianness : Big
Codec ID : 2000
Duration : 2h 37mn
Bit rate mode : Constant
Bit rate : 448 Kbps
Channel(s) : 6 channels
Channel positions : Front: L C R, Side: L R, LFE
Sampling rate : 48.0 KHz
Bit depth : 16 bits
Compression mode : Lossy
Stream size : 503 MiB (22%)
Alignment : Split accross interleaves
Interleave, duration : 40 ms (1.00 video frame)
Interleave, preload duration : 500 ms




..Munich.(..Steven.Spielberg).[2005....HDTVRip].[DUB].+.[Sub.(Rus)].torrent
  ! ! 
:   [ : ] c?
MAGNET
MAGNET


.torrent

23 KB

: DHT
: - 3159 , - 217
: 2,18 GB
4,7 (: 3)
: 3
:
 FacebookTwitterLivejournal Liveinternet
 

 
: