Loading...
Error

: / Spartacus: War of the Damned ( 3- ) ( ) [2013, , , , , , HDTV] [720p] [MVO] ( Jaskier)

 
16,14 GB   |    :  460
1  [  0 KB/s  ]  
 

leon030982

[] 

: / Spartacus: War of the Damned

: 2013
:
: ,
: 50 ()
: ( ) [ Jaskier]
:
:
: STARZ

:

: , , , , , , -, .

: . . , , .


: Doctor Joker MartinaG
: , ,

: HDTVRip 720p
: MKV
: h264
: AC3
: 1280x720 (16:9), 23.976 fps, ~3100 kbps, 0.147 bit/pixel
1 ( ): 48 kHz, AC3 Dolby Digital, 3/2 (L,C,R,l,r), ~448.00 kbps avg,
2 (): 48 kHz, AC3 Dolby Digital, 3/2 (L,C,R,l,r), ~384.00 kbps avg

01. Enemies of Rome

:

General
Unique ID : 227250119113047544747050309372697462054 (0xAAF6C7EACD372B949B34E428DC4D4526)
Complete name : D:\Spartacus War of the Damned MVO Jaskier 720p\Spartacus.S03E01.720p.HDTV.x264-JaskierStudio_GoodPeople.mkv
Format : Matroska
Format version : Version 1
File size : 1.38 GiB
Duration : 50mn 46s
Overall bit rate : 3 888 Kbps
Encoded date : UTC 2013-01-27 18:29:28
Writing application : mkvmerge v2.3.0 ('Freak U') built on Sep 8 2008 18:32:16
Writing library : libebml v0.7.7 + libmatroska v0.8.1
Video
ID : 1
Format : AVC
Format/Info : Advanced Video Codec
Format profile : High@L4.1
Format settings, CABAC : Yes
Format settings, ReFrames : 5 frames
Codec ID : V_MPEG4/ISO/AVC
Duration : 50mn 46s
Bit rate : 2 979 Kbps
Width : 1 280 pixels
Height : 720 pixels
Display aspect ratio : 16:9
Frame rate mode : Constant
Frame rate : 23.976 fps
Color space : YUV
Chroma subsampling : 4:2:0
Bit depth : 8 bits
Scan type : Progressive
Bits/(Pixel*Frame) : 0.135
Stream size : 1.06 GiB (77%)
Writing library : x264 core 129 r2245 bc13772
Encoding settings : cabac=1 / ref=5 / deblock=1:0:0 / analyse=0x3:0x113 / me=umh / subme=8 / psy=1 / psy_rd=1.00:0.00 / mixed_ref=1 / me_range=16 / chroma_me=1 / trellis=1 / 8x8dct=1 / cqm=0 / deadzone=21,11 / fast_pskip=1 / chroma_qp_offset=-2 / threads=18 / lookahead_threads=3 / sliced_threads=0 / nr=0 / decimate=1 / interlaced=0 / bluray_compat=0 / constrained_intra=0 / bframes=3 / b_pyramid=2 / b_adapt=2 / b_bias=0 / direct=3 / weightb=1 / open_gop=0 / weightp=2 / keyint=250 / keyint_min=23 / scenecut=40 / intra_refresh=0 / rc_lookahead=50 / rc=crf / mbtree=1 / crf=18.0 / qcomp=0.60 / qpmin=0 / qpmax=69 / qpstep=4 / ip_ratio=1.40 / aq=1:1.00
Language : English
Default : Yes
Forced : No
Matrix coefficients : BT.709
Audio #1
ID : 2
Format : AC-3
Format/Info : Audio Coding 3
Mode extension : CM (complete main)
Format settings, Endianness : Big
Codec ID : A_AC3
Duration : 50mn 46s
Bit rate mode : Constant
Bit rate : 448 Kbps
Channel(s) : 6 channels
Channel positions : Front: L C R, Side: L R, LFE
Sampling rate : 48.0 KHz
Bit depth : 16 bits
Compression mode : Lossy
Stream size : 163 MiB (12%)
Language : Russian
Default : Yes
Forced : No
Audio #2
ID : 3
Format : AC-3
Format/Info : Audio Coding 3
Mode extension : CM (complete main)
Format settings, Endianness : Big
Codec ID : A_AC3
Duration : 50mn 46s
Bit rate mode : Constant
Bit rate : 384 Kbps
Channel(s) : 6 channels
Channel positions : Front: L C R, Side: L R, LFE
Sampling rate : 48.0 KHz
Bit depth : 16 bits
Compression mode : Lossy
Stream size : 139 MiB (10%)
Language : English
Default : No
Forced : No
! ; . , :
.
( ).
, .
() ( - ), . , !
E , , . , , .



...Spartacus.War.of.the.Damned.(.3-.).(.).[2013......HDTV].[720p].[MVO].(.Jaskier).torrent
  ! ! 
:   [ : ] c?
MAGNET
MAGNET


.torrent

44 KB

: DHT
: - 460 , - 70
: 16,14 GB
5 (: 3)
: 6
:
 FacebookTwitterLivejournal Liveinternet
 

 

leon030982

[] 

ab ? ? - lost bw
 

rebornweb

[] 

, . , , . , )
 

leon030982

[] 

rebornweb ():

, . , , . , )
ag - bs
 

leon030982

[] 

10.02.13 3- !
 

leon030982

[] 

25.02.13 4- !
 

leon030982

[] 

5- az
 

leon030982

[] 

6- az az az
 

leon030982

[] 

8- az
 

leon030982

[] 

9- az
 
: