Loading...
Error

Скачать Провал во времени / Retroactive (Луис Морно) [1997, фантастика, триллер, криминал, боевик, DVDRip-AVC] [VO] торрент без регистрации

 
Статистика раздачи
Размер:  1,68 GB   |    Скачан:  112 раз
Сидов:  1  [  0 KB/s  ]  
 
Автор Сообщение

Marsianka

[] 

Провал во времени / Retroactive

«On a lonely Texas road, time, space and murder are about to collide.»

Информация о фильме:

Название: Провал во времени
Оригинальное название: Retroactive
Год выхода: 1997
Жанр: фантастика, триллер, криминал, боевик

Режиссер: Луис Морно /Louis Morneau/
Оператор: Джордж Мурадян /George Mooradian/
Композиторы: Маркус Бароне /Marcus Barone/, Тим Трумэн /Tim Truman/
Сценаристы: Майкл Хэмилтон-Райт /Michael Hamilton-Wright/, Роберт Страусс /Robert Strauss/, Филлип Бэджер /Phillip Badger/

В ролях: Джеймс Белуши /James Belushi/, Кайли Трэвис /Kylie Travis/, Шэннон Уирри /Shannon Whirry/, Фрэнк Уэйли /Frank Whaley/, Джесси Боррего /Jesse Borrego/, М. Эммет Уолш /M. Emmet Walsh/, Робби Тибо-младший /Robbie Thibaut, Jr./, Кристина Коггинс /Kristina Coggins/, Шерман Хауард /Sherman Howard/, Гай Бойд /Guy Boyd/ и другие...

Описание: Под ярким солнцем Великой Американской равнины, на одинокой, продуваемой всеми ветрами автозаправочной станции происходит жестокое преступление. Эти, леденящие душу события происходят на глазах Карен, попутчицы человека, оказавшего беспощадным убийцей.
Спасаясь от его преследования, Карен вновь и вновь возвращается в прошлое, но всего лишь на 20 минут назад для того, чтобы предотвратить уже совершенное убийство. Один убийца! Один свидетель! Один шанс спастись!



Страна:
Выпущено: Cohiba Pictures
Продолжительность: 01:31:00
Перевод: Профессиональный, одноголосый /Д.Купцов/

Качество: DVDRip-AVC /Исходник DVD5/
Формат: MKV
Видео кодек: x264
Аудио кодек: AC3
Видео: MPEG4 Video (H264) 704x304, 23.98fps, ~1705 kbps avg, 0.33 bit/pixel
Аудио 1: 48.0 KHz, Dolby AC3, 6 channels, ~448.00 kbps avg /Одноголосый/
Аудио 2: 48.0 KHz, Dolby AC3, 6 channels, ~448.00 kbps avg /Оригинальный/ Отдельным файлом
Субтитры: Нет
Навигация по главам: Нет

Format : Matroska
File size : 1.40 GiB
Duration : 1h 33mn
Overall bit rate : 2 143 Kbps
Encoded date : UTC 2010-08-05 14:29:51
Writing application : mkvmerge v3.1.0 ('Happy up here') built on Jan 19 2010 12:09:24
Writing library : libebml v0.7.9 + libmatroska v0.8.1

Video
ID : 1
Format : AVC
Format/Info : Advanced Video Codec
Format profile : High@L2.2
Format settings, CABAC : No
Format settings, ReFrames : 4 frames
Muxing mode : Container profile=Unknown@2.2
Codec ID : V_MPEG4/ISO/AVC
Duration : 1h 33mn
Bit rate : 1 705 Kbps
Width : 704 pixels
Height : 304 pixels
Display aspect ratio : 2.35:1
Frame rate : 23.976 fps
Color space : YUV
Chroma subsampling : 4:2:0
Bit depth : 8 bits
Scan type : Progressive
Bits/(Pixel*Frame) : 0.332
Stream size : 1.08 GiB (77%)
Writing library : x264 core 98 r1649 c54c47d
Encoding settings : cabac=0 / ref=2 / deblock=0:0:0 / analyse=0x3:0x113 / me=hex / subme=4 / psy=1 / psy_rd=0.00:0.00 / mixed_ref=0 / me_range=16 / chroma_me=1 / trellis=0 / 8x8dct=1 / cqm=0 / deadzone=21,11 / fast_pskip=1 / chroma_qp_offset=0 / threads=1 / sliced_threads=0 / nr=0 / decimate=1 / interlaced=0 / constrained_intra=0 / bframes=5 / b_pyramid=2 / b_adapt=1 / b_bias=0 / direct=1 / weightb=0 / weightp=1 / keyint=250 / keyint_min=25 / scenecut=40 / intra_refresh=0 / rc_lookahead=20 / rc=2pass / mbtree=1 / bitrate=1705 / ratetol=1.0 / qcomp=0.60 / qpmin=10 / qpmax=51 / qpstep=4 / cplxblur=20.0 / qblur=0.5 / ip_ratio=1.40 / aq=1:1.00
Language : English

Audio
ID : 2
Format : AC-3
Format/Info : Audio Coding 3
Mode extension : CM (complete main)
Codec ID : A_AC3
Duration : 1h 33mn
Bit rate mode : Constant
Bit rate : 448 Kbps
Channel(s) : 6 channels
Channel positions : Front: L C R, Side: L R, LFE
Sampling rate : 48.0 KHz
Bit depth : 16 bits
Video delay : 28ms
Stream size : 299 MiB (21%)
Title : Одноголосый
Language : Russian



Скачать Провал.во.времени.Retroactive.(Луис.Морно).[1997.фантастика.триллер.криминал.боевик.DVDRip-AVC].[VO].torrent без регистрации
Золото ЗОЛОТАЯ РАЗДАЧА! СКАЧАННОЕ НЕ ЗАСЧИТЫВАЕТСЯ! Золото
Дата: Зарегистрирован   [ Тип: внутренний ] Как тут cкачать?
MAGNET ссылка
MAGNET ссылка


Скачать .torrent

17 KB

Статус: проверено DHT
Скачан: торрент - 112 раз, раздача полностью - 30 раз
Размер: 1,68 GB
Оценка:  - (Голосов: 0)
Поблагодарили: 1
Поделиться ссылкой на эту раздачу с друзьями:
В контактеFacebookОдноклассникиTwitterLivejournalМой МирLiveinternet
 

 
Показать сообщения:    


Вы не можете начинать темы
Вы не можете отвечать на сообщения
Вы не можете редактировать свои сообщения
Вы не можете удалять свои сообщения
Вы не можете голосовать в опросах
Вы не можете прикреплять файлы к сообщениям
Вы можете скачивать файлы