Loading...
Error

Скачать Перевозчик / Transporter: The Series (сезон 01) (Брэд Тернер, Энди Микита, Т.Дж. Скотт) [2012, боевик, экшн, драма, криминал, BDRip] [720p] [MVO (LostFilm)] торрент без регистрации

 
Статистика раздачи
Размер:  18,34 GB   |    Скачан:  224 раза

Полного источника не было: 29 минут

 
Автор Сообщение

МихаНЕзатор

[] 

Название: Перевозчик
Оригинальное название: Transporter: The Series
Год выпуска: 2012
Жанр: боевик, экшн, драма, криминал
Субтитры: Нет
Режиссер: Брэд Тернер, Энди Микита, Т.Дж. Скотт
Сценарий: Люк Бессон, Роберт Марк Кэмен, Джозеф Маллози
В ролях: Крис Вэнс,Андреа Ошварт, Дэльфина Шанеак, Чарли Хюбнер, Франсуа Берлеан, Жан-Поль Мано, Джулиан Ричингс, Джейк Майклс, Джош Блэкер, Ной Кэппи

Описание: Перевозчик экшн-телесериал по мотивам одноимённой серии фильмов Люка Бессона. В центре сюжета бывший сотрудник Сил специального назначения Фрэнк Мартин, ныне перевозчик разных грузов. Он не задает лишних вопросов и всегда соблюдает чёткие правила: "Никогда не изменяй условия сделки", "Никаких имён", "Никогда не открывать груз". Его точность вождения и боевые навыки позволяют ему выжить в самых опасных ситуациях на протяжении всей миссии.

Страна: Канада, Франция, США, Германия
Продолжительность: 01 х ~ 00:45:00
Перевод: Профессиональный (многоголосый, закадровый) - LostFilm



Качество: BDRip 720p
Формат: МКV
Видео: MPEG-4 AVC, ~ 4041 Кбит/с, 1280x720
Аудио: AC3, 2 ch, 384 Кбит/с (Русский, английский)

Релиз от:

02.04.2013 г. торент обновлён, добавлена 12 серия, залито полностью!

01. Дочь генерала / The General's Daughter
02. Что посеешь...
03. Троянская лошадиная сила / Trojan Horsepower
04. Расплата / Payback
05. Тайник
06. Горячий лед
07. Рука помощи
08. Акулы
09. Город любви / City of Love
10. Подмена / The Switch
11. Двенадцать часов / 12 Hours
12. Подай руку помощи / Give the Guy a Hand
Полное имя : D:Transporter.S01E01.720p.rus.LostFilm.TV.mkv
Формат : Matroska
Размер файла : 1,54 Гбайт
Продолжительность : 45 м.
Общий поток : 4811 Кбит/сек
Дата кодирования : UTC 2013-01-29 17:04:47
Программа кодирования : mkvmerge v4.2.0 ('No Talking') сборка от Jul 28 2010 18:38:23
Библиотека кодирования : libebml v1.0.0 + libmatroska v1.0.0

Видео
Идентификатор : 1
Формат : AVC
Формат/Информация : Advanced Video Codec
Профиль формата : High@L3.1
Параметр CABAC формата : Да
Параметр ReFrames формата : 4 кадра
Параметры GOP формата : M=3, N=6
Идентификатор кодека : V_MPEG4/ISO/AVC
Продолжительность : 45 м.
Битрейт : 4041 Кбит/сек
Ширина : 1280 пикс.
Высота : 720 пикс.
Соотношение сторон : 16:9
Частота кадров : 25,000 кадр/сек
Цветовое пространство : YUV
Подвыборка цветности : 4:2:0
Битовая глубина : 8 бит
Тип развёртки : Прогрессивная
Бит/(Пиксели*Кадры) : 0.175
Размер потока : 1,26 Гбайт (82%)
Библиотека кодирования : x264 core 112 r1834 a51816a
Настройки программы : cabac=1 / ref=1 / deblock=1:0:0 / analyse=0x3:0x113 / me=hex / subme=7 / psy=1 / psy_rd=1.00:0.00 / mixed_ref=0 / me_range=16 / chroma_me=1 / trellis=1 / 8x8dct=1 / cqm=0 / deadzone=21,11 / fast_pskip=1 / chroma_qp_offset=-2 / threads=6 / sliced_threads=0 / nr=0 / decimate=1 / interlaced=0 / constrained_intra=0 / bframes=3 / b_pyramid=2 / b_adapt=1 / b_bias=0 / direct=1 / weightb=1 / open_gop=0 / weightp=2 / keyint=250 / keyint_min=25 / scenecut=40 / intra_refresh=0 / rc_lookahead=40 / rc=2pass / mbtree=1 / bitrate=4041 / ratetol=1.0 / qcomp=0.60 / qpmin=0 / qpmax=51 / qpstep=4 / cplxblur=20.0 / qblur=0.5 / ip_ratio=1.40 / aq=1:1.00

Аудио #1
Идентификатор : 2
Формат : AC-3
Формат/Информация : Audio Coding 3
Расширение режима : CM (complete main)
Идентификатор кодека : A_AC3
Продолжительность : 45 м.
Вид битрейта : Постоянный
Битрейт : 384 Кбит/сек
Каналы : 2 канала
Расположение каналов : Front: L R
Частота : 44,1 КГц
Битовая глубина : 16 бит
Метод сжатия : С потерями
Размер потока : 126 Мбайт (8%)

Аудио #2
Идентификатор : 3
Формат : AC-3
Формат/Информация : Audio Coding 3
Расширение режима : CM (complete main)
Идентификатор кодека : A_AC3
Продолжительность : 45 м.
Вид битрейта : Постоянный
Битрейт : 384 Кбит/сек
Каналы : 2 канала
Расположение каналов : Front: L R
Частота : 48,0 КГц
Битовая глубина : 16 бит
Метод сжатия : С потерями
Размер потока : 126 Мбайт (8%)



Скачать Перевозчик.Transporter.The.Series.(сезон.01).(Брэд.Тернер.Энди.Микита.Т.Дж.Скотт).[2012.боевик.экшн.драма.криминал.BDRip].[720p].[MVO.(LostFilm)].torrent без регистрации
Золото ЗОЛОТАЯ РАЗДАЧА! СКАЧАННОЕ НЕ ЗАСЧИТЫВАЕТСЯ! Золото
Дата: Зарегистрирован   [ Тип: внутренний ] Как тут cкачать?
MAGNET ссылка
MAGNET ссылка


Скачать .torrent

48 KB

Статус: проверено DHT
Скачан: торрент - 224 раз, раздача полностью - 54 раз
Размер: 18,34 GB
Оценка:  5 (Голосов: 4)
Поблагодарили: 6
Поделиться ссылкой на эту раздачу с друзьями:
В контактеFacebookОдноклассникиTwitterLivejournalМой МирLiveinternet
 

 

МихаНЕзатор

[] 

Раздача обновлена
 
Показать сообщения:    


Вы не можете начинать темы
Вы не можете отвечать на сообщения
Вы не можете редактировать свои сообщения
Вы не можете удалять свои сообщения
Вы не можете голосовать в опросах
Вы не можете прикреплять файлы к сообщениям
Вы можете скачивать файлы