Loading...
Error

Скачать Как зелена была моя долина / How Green Was My Valley (Джон Форд) [1941, драма, семейный, DVDRip] [MVO]+[Оригинал]+[Sub] торрент без регистрации

 
Статистика раздачи
Размер:  2,19 GB   |    Скачан:  103 раза
Сидов:  1  [  0 KB/s  ]  
 
Автор Сообщение

Marsianka

[] 

«Rich is their humor! Deep are their passions! Reckless are their lives! Mighty is their story!»

Год выпуска: 1941
Страна: США
Жанр: драма, семейный
Продолжительность: 01:54:13
Перевод: Профессиональный (многоголосый, закадровый)
Оригинальная аудиодорожка: английский
Cубтитры: русский

Режиссер: Джон Форд / John Ford

В ролях: Уолтер Пиджон, Морин ОХара, Анна Ли, Дональд Крисп, Родди МакДауэлл, Джон Лодер, Сара Оллгуд, Бэрри Фицджералд, Патрик Ноулз, Мортон Лоури...

Описание: Фильм "Как зелена была моя долина", обладатель пяти "Оскаров", является одним из наиболее изысканных фильмов всех времен.
Угледобывающий район в Южном Уэльсе, тяжелый труд шахтеров, жизнь их семей увидены глазами Хью, младшего из шести детей семьи во главе с суровым отцом и любящей матерью.

Качество видео: DVDRip [DVD9 R5]
Формат видео: AVI

Видео: 704x528 (4:3), XViD 2093 Кбит/сек 25,000 fps / Бит/(Пиксели*Кадры): 0.225
Аудио:
Dolby Digital Audio Russian 448 kbps 5.1 / 48 kHz
Dolby Digital Audio English 192 kbps 2.0 / 48 kHz

Раздача от:

Общее
Полное имя : Kak.zelena.byla.moya.dolina.1941.P.DVDRip.2.18GB_[Youtracker]_by_avproh.avi
Формат : AVI
Формат/Информация : Audio Video Interleave
Профиль формата : OpenDML
Размер файла : 2,19 Гбайт
Продолжительность : 1 ч. 54 м.
Общий поток : 2751 Кбит/сек
Программа кодирования : VirtualDubMod 1.5.10.3 (build 2550/release)
Библиотека кодирования : VirtualDubMod build 2550/release

Видео
Идентификатор : 0
Формат : MPEG-4 Visual
Профиль формата : Advanced Simple@L5
Параметр BVOP формата : 1
Параметр QPel формата : Нет
Параметр GMC формата : Без точки перехода
Параметр матрицы формата : Выборочная
Идентификатор кодека : XVID
Идентификатор кодека/Подсказка : XviD
Продолжительность : 1 ч. 54 м.
Битрейт : 2093 Кбит/сек
Ширина : 704 пикселя
Высота : 528 пикселей
Соотношение сторон : 4:3
Частота кадров : 25,000 кадров/сек
Цветовое пространство : YUV
Субдискретизация насыщенности : 4:2:0
Битовая глубина : 8 бит
Тип развёртки : Прогрессивная
Метод сжатия : С потерями
Бит/(Пиксели*Кадры) : 0.225
Размер потока : 1,67 Гбайт (76%)
Библиотека кодирования : XviD 65

Аудио #1
Идентификатор : 1
Формат : AC-3
Формат/Информация : Audio Coding 3
Расширение режима : CM (complete main)
Параметр Endianness формата : Big
Идентификатор кодека : 2000
Продолжительность : 1 ч. 54 м.
Вид битрейта : Постоянный
Битрейт : 448 Кбит/сек
Каналы : 6 каналов
Расположение каналов : Front: L C R, Side: L R, LFE
Частота : 48,0 КГц
Битовая глубина : 16 бит
Метод сжатия : С потерями
Размер потока : 366 Мбайт (16%)
Выравнивание : Разделение по промежуткам
Продолжительность промежутка : 40 мс. (1,00 видеокадр)
Время предзагрузки промежутка : 500 мс.

Аудио #2
Идентификатор : 2
Формат : AC-3
Формат/Информация : Audio Coding 3
Расширение режима : CM (complete main)
Параметр Endianness формата : Big
Идентификатор кодека : 2000
Продолжительность : 1 ч. 54 м.
Вид битрейта : Постоянный
Битрейт : 192 Кбит/сек
Каналы : 2 канала
Расположение каналов : Front: L R
Частота : 48,0 КГц
Битовая глубина : 16 бит
Метод сжатия : С потерями
Размер потока : 157 Мбайт (7%)
Выравнивание : Разделение по промежуткам
Продолжительность промежутка : 40 мс. (1,00 видеокадр)
Время предзагрузки промежутка : 500 мс.



Скачать Как.зелена.была.моя.долина.How.Green.Was.My.Valley.(Джон.Форд).[1941.драма.семейный.DVDRip].[MVO]+[Оригинал]+[Sub].torrent без регистрации
Золото ЗОЛОТАЯ РАЗДАЧА! СКАЧАННОЕ НЕ ЗАСЧИТЫВАЕТСЯ! Золото
Дата: Зарегистрирован   [ Тип: внутренний ] Как тут cкачать?
MAGNET ссылка
MAGNET ссылка


Скачать .torrent

12 KB

Статус: проверено DHT
Скачан: торрент - 103 раз, раздача полностью - 0 раз
Размер: 2,19 GB
Оценка:  - (Голосов: 0)
Поблагодарили: 0
Поделиться ссылкой на эту раздачу с друзьями:
В контактеFacebookОдноклассникиTwitterLivejournalМой МирLiveinternet
 

 
Показать сообщения:    


Вы не можете начинать темы
Вы не можете отвечать на сообщения
Вы не можете редактировать свои сообщения
Вы не можете удалять свои сообщения
Вы не можете голосовать в опросах
Вы не можете прикреплять файлы к сообщениям
Вы можете скачивать файлы