Loading...
Error

Скачать Займемся любовью / Let's Make Love (Джордж Кьюкор / George Cukor) [1960, Комедия, Мелодрама, Мюзикл, DVDRip] [MVO] (Первый канал) + [Original Eng] торрент без регистрации

 
Статистика раздачи
Размер:  1,37 GB   |    Скачан:  114 раз
Сидов:  1  [  0 KB/s  ]  
 
Автор Сообщение

leon030982

[] 

Займемся любовью / Let's Make Love


Год выпуска: 1960
Страна: США
Жанр: Комедия, Мелодрама, Мюзикл
Продолжительность: 01:58:35
Перевод: Профессиональный (многоголосый закадровый) [Первый канал]
Cубтитры: нет

Оригинальная аудиодорожка: английский

Режиссер: Джордж Кьюкор / George Cukor

В ролях: Мэрилин Монро, Ив Монтан, Тони Рэндалл, Фрэнки Вон, Вилфрид Хайд-Вайт, Дэвид Барнс, Майкл Дэвид, Мара Линн, Дэннис Кинг мл., Джо Бессер

Описание: Миллиардер Жан-Поль Клеман - потомственный бизнесмен и привлекательный мужчина. Он умеет делать деньги и очень любит женщин. Жан-Поль привык блистать в обществе и считает, что для него нет ничего невозможного. Получив шокирующее известие о том, что он - «гений бизнеса» - станет объектом насмешек в юмористическом спектакле, Клеман решает самостоятельно разобраться с проблемой и едет в театр. Там он встречает красавицу Аманду и влюбляется в нее. Чтобы добиться расположения гордой девушки, миллиардер вынужден скрывать свое имя, выдавая себя за бедного актера - исполнителя роли Клемана в спектакле. Закручивается великолепная интрига, в центре которой оказывается герой, который должен играть самого себя. Серьезному бизнесмену нужно научиться быть смешным, и это оказывается для него большим испытанием. Но для Клемана ведь «нет ничего невозможного». Особенно теперь, когда сердце миллиардера-плейбоя впервые проникла настоящая, большая любовь.

Качество видео: DVDRip
Формат видео: AVI
Видео: 704x304 (2.32:1), 23.976 fps, XviD build 46 ~1252 kbps avg, 0.24 bit/pixel
Аудио: 48 kHz, MPEG Layer 3, 2 ch, ~192.00 kbps avg
Аудио 2: 48 kHz, MPEG Layer 3, 2 ch, ~192.00 kbps avg
General
Complete name : D:\Займемся любовью.avi
Format : AVI
Format/Info : Audio Video Interleave
File size : 1.37 GiB
Duration : 1h 58mn
Overall bit rate : 1 651 Kbps
Writing application : VirtualDubMod 1.5.10.2 (build 2540/release)
Writing library : VirtualDubMod build 2540/release
Video
ID : 0
Format : MPEG-4 Visual
Format profile : Advanced Simple@L5
Format settings, BVOP : 1
Format settings, QPel : No
Format settings, GMC : No warppoints
Format settings, Matrix : Default (MPEG)
Codec ID : XVID
Codec ID/Hint : XviD
Duration : 1h 58mn
Bit rate : 1 253 Kbps
Width : 704 pixels
Height : 304 pixels
Display aspect ratio : 2.35:1
Frame rate : 23.976 fps
Color space : YUV
Chroma subsampling : 4:2:0
Bit depth : 8 bits
Scan type : Progressive
Compression mode : Lossy
Bits/(Pixel*Frame) : 0.244
Stream size : 1.04 GiB (76%)
Writing library : XviD 1.1.2 (UTC 2006-11-01)
Audio #1
ID : 1
Format : MPEG Audio
Format version : Version 1
Format profile : Layer 3
Mode : Joint stereo
Mode extension : MS Stereo
Codec ID : 55
Codec ID/Hint : MP3
Duration : 1h 58mn
Bit rate mode : Constant
Bit rate : 192 Kbps
Channel(s) : 2 channels
Sampling rate : 48.0 KHz
Compression mode : Lossy
Stream size : 163 MiB (12%)
Alignment : Aligned on interleaves
Interleave, duration : 42 ms (1.00 video frame)
Interleave, preload duration : 504 ms
Writing library : LAME3.98.4
Audio #2
ID : 2
Format : MPEG Audio
Format version : Version 1
Format profile : Layer 3
Codec ID : 55
Codec ID/Hint : MP3
Duration : 1h 58mn
Bit rate mode : Constant
Bit rate : 192 Kbps
Channel(s) : 2 channels
Sampling rate : 48.0 KHz
Compression mode : Lossy
Stream size : 163 MiB (12%)
Alignment : Split accross interleaves
Interleave, duration : 42 ms (1.00 video frame)
Interleave, preload duration : 500 ms



Скачать Займемся.любовью.Let's.Make.Love.(Джордж.Кьюкор.George.Cukor).[1960.Комедия.Мелодрама.Мюзикл.DVDRip].[MVO].(Первый.канал).+.[Original.Eng].torrent без регистрации
Золото ЗОЛОТАЯ РАЗДАЧА! СКАЧАННОЕ НЕ ЗАСЧИТЫВАЕТСЯ! Золото
Дата: Зарегистрирован   [ Тип: внутренний ] Как тут cкачать?
MAGNET ссылка
MAGNET ссылка


Скачать .torrent

14 KB

Статус: проверено DHT
Скачан: торрент - 114 раз, раздача полностью - 5 раз
Размер: 1,37 GB
Оценка:  5 (Голосов: 2)
Поблагодарили: 5
Поделиться ссылкой на эту раздачу с друзьями:
В контактеFacebookОдноклассникиTwitterLivejournalМой МирLiveinternet
 

 

ЛАВ76

[] 

супер! поддержите раздачу! спасибо!!!
 
Показать сообщения:    


Вы не можете начинать темы
Вы не можете отвечать на сообщения
Вы не можете редактировать свои сообщения
Вы не можете удалять свои сообщения
Вы не можете голосовать в опросах
Вы не можете прикреплять файлы к сообщениям
Вы можете скачивать файлы