Loading...
Error

Скачать Мыслить как преступник / Criminal Minds (сезон 08) (Джефф Дэвис) [2012, триллер, драма, криминал, детектив, WEB-DL] [720p] [MVO (Fox Crime)] торрент без регистрации

 
Статистика раздачи
Размер:  32,41 GB   |    Скачан:  7449 раз

Полного источника не было: 26 минут

Личеров:  1  [  0 KB/s  ]  
 
Автор Сообщение

МихаНЕзатор

[] 

Информация о сериале
Название: Мыслить как преступник
Оригинальное название: Criminal Minds
Годы выхода: 2011-2012
Жанр: драма, криминал, детектив, триллер
Автор идеи: Джефф Дэвис /Jeff Davis/
Режиссеры: Гленн Кершоу /Glenn Kershaw/, Феликс Энрикез Алькала /Félix Enríquez Alcalá/, Эдвард Аллен Бернеро /Edward Allen Bernero/ и др.

В ролях: Джо Мантенья /Joe Mantegna/, Томас Гибсон /Thomas Gibson/, Шемар Мур /Shemar Moore/, Мэттью Грей Гублер /Matthew Gray Gubler/, А.Дж. Кук /A.J. Cook/, Кирстен Вангснесс /Kirsten Vangsness/, Джинн Трипплхорн /Jeanne Tripplehorn/ и др.

О сериале: Главные герои сериала - команда лучших следователей ФБР, способных понять и проанализировать ход мыслей самых изощрённых преступников, предугадать их дальнейшие поступки и тем самым предотвратить ужасные преступления. Когда обычные криминалисты заходят в тупик, на помощь им приходят специалисты по поведенческому анализу.

Вместо тщательного изучения улик они пытаются найти и понять мотивы преступления, досконально вникая в каждый шаг преступника и пытаясь мыслить, как он. Работая на месте преступления, эти профессионалы словно расследуют его изнутри, стараясь понять мысли преступника, какими бы тёмными они ни были.

Релиз от:

Страна: США, Канада
Студии: The Mark Gordon Company / Paramount Network Television / ABC Studios
Продолжительность: 24 x ~ 00:43:00
Перевод: Профессиональный (многоголосый, закадровый) - Fox

Файл
Кодек: H.264
Качество: WEB-DL 720p
Видео: 1280x720 at 23.976 fps, MPEG-4 AVC, ~4000 kbps avg
Аудио#1: Russian: 48 kHz, AC3, 2/0 (L,R) ch, ~192.00 kbps avg |Многоголосый закадровый, Fox|
Аудио#2: English: 48 kHz, AC3, 3/2 (L,C,R,l,r) + LFE ch, ~384.00 kbps avg |Оригинал|
Субтитры: none

АНОНСЫ ПОПУЛЯРНЫХ РАЗДАЧ


Торент обновлён, добавлена 24 серия, сезон полностью!

01. The Silencer / Глушитель
02. The Pact / Пакт
03. Through the Looking Glass / Сквозь стекло
04. God Complex / Комплекс Бога
05. The Good Earth / Хорошая почва
06. The Apprenticeship / Ученичество
07. The Fallen / Падший
08. The Wheels on the Bus... / Автобусные колеса
09. Magnificent Light / Волшебный свет
10. The Lesson / Урок
11. Perennials / Круговорот
12. Zugzwang / Цуцванг
13. Magnum Opus / Выдающееся произведение
14. All That Remains / Все, что осталось
15. Broken / Сломанный
16. Carbon Copy / Точная копия
17. The Gathering / Подборка
18. Restoration / Возрождение
19. Pay It Forward / Заплати другому
20. Alchemy / Алхимия
21. Nanny Dearest / Дорогая няня
22. #6 / Номер шесть
23. Brothers Hotchner / Братья Хотчнеры
24. The Replicator / Подражатель
General
Complete name : Criminal.minds.s08e01.WEBDL.720p.NewStudio.TV.mkv
Format : Matroska
Format version : Version 2
File size : 1.33 GiB
Duration : 41mn 33s
Overall bit rate : 4 599 Kbps
Encoded date : UTC 2012-11-20 18:04:38
Writing application : mkvmerge v2.9.9 ('Tutu') built on Nov 25 2009 21:13:32
Writing library : libebml v0.7.9 + libmatroska v0.8.1

Video
ID : 1
Format : AVC
Format/Info : Advanced Video Codec
Format profile : High@L3.1
Format settings, CABAC : No
Format settings, ReFrames : 2 frames
Codec ID : V_MPEG4/ISO/AVC
Duration : 41mn 33s
Bit rate : 3 932 Kbps
Width : 1 280 pixels
Height : 720 pixels
Display aspect ratio : 16:9
Frame rate mode : Constant
Frame rate : 23.976 fps
Color space : YUV
Chroma subsampling : 4:2:0
Bit depth : 8 bits
Scan type : Progressive
Bits/(Pixel*Frame) : 0.178
Stream size : 1.14 GiB (85%)
Title : Criminal Minds - Season 8, Episode 1: The Silencer
Language : English
Default : No
Forced : No
Color range : Limited
Color primaries : BT.709
Transfer characteristics : BT.709
Matrix coefficients : BT.709

Audio #1
ID : 2
Format : AC-3
Format/Info : Audio Coding 3
Mode extension : CM (complete main)
Format settings, Endianness : Big
Codec ID : A_AC3
Duration : 41mn 33s
Bit rate mode : Constant
Bit rate : 192 Kbps
Channel(s) : 2 channels
Channel positions : Front: L R
Sampling rate : 48.0 KHz
Compression mode : Lossy
Stream size : 57.1 MiB (4%)
Default : Yes
Forced : Yes

Audio #2
ID : 3
Format : AC-3
Format/Info : Audio Coding 3
Mode extension : CM (complete main)
Format settings, Endianness : Big
Codec ID : A_AC3
Duration : 41mn 33s
Bit rate mode : Constant
Bit rate : 384 Kbps
Channel(s) : 6 channels
Channel positions : Front: L C R, Side: L R, LFE
Sampling rate : 48.0 KHz
Compression mode : Lossy
Stream size : 114 MiB (8%)
Title : Dolby Digital 5.1 @ 384 kbps
Language : English
Default : No
Forced : No



Скачать Мыслить.как.преступник.Criminal.Minds.(сезон.08).(Джефф.Дэвис).[2012.триллер.драма.криминал.детектив.WEB-DL].[720p].[MVO.(Fox.Crime)].torrent без регистрации
Золото ЗОЛОТАЯ РАЗДАЧА! СКАЧАННОЕ НЕ ЗАСЧИТЫВАЕТСЯ! Золото
Дата: Зарегистрирован   [ Тип: внутренний ] Как тут cкачать?
MAGNET ссылка
MAGNET ссылка


Скачать .torrent

85 KB

Статус: проверено DHT
Скачан: торрент - 7449 раз, раздача полностью - 8 раз
Размер: 32,41 GB
Оценка:  - (Голосов: 0)
Поблагодарили: 0
Поделиться ссылкой на эту раздачу с друзьями:
В контактеFacebookОдноклассникиTwitterLivejournalМой МирLiveinternet
 

 
Показать сообщения:    


Вы не можете начинать темы
Вы не можете отвечать на сообщения
Вы не можете редактировать свои сообщения
Вы не можете удалять свои сообщения
Вы не можете голосовать в опросах
Вы не можете прикреплять файлы к сообщениям
Вы можете скачивать файлы