Loading...
Error

/ / The Breakfast Club ( / John Hughes) [1985, , BDRip-AVC] [VO] (kyberpunk)

 
1,46 GB   |    :  112
1  [  0 KB/s  ]  
 

leon030982

[] 

/ The Breakfast Club


: 1985
:
:
: 01:36:56

: () [ / kyberpunk] ( )
:
: / John Hughes

: , , , , ,

: , , , , . , , , , . , , , .
|
. : slava_irish. - Perevodman. , .
: BDRip-AVC
: MKV
: x264, 960x512 (16:9), 1697 Kbps, 23.976 fps
: AC3, 16 bits, 448 kbps, 48,0 kHz, 5.1

:

General
Unique ID : 178737440893599319902671323263535406883 (0x86779436B930104CA8C9BB84BF33DF23)
Complete name : The.Breakfast.Club.NTSC.Kyberpunk.mkv
Format : Matroska
Format version : Version 4 / Version 2
File size : 1.46 GiB
Duration : 1h 37mn
Overall bit rate mode : Variable
Overall bit rate : 2 146 Kbps
Encoded date : UTC 2013-01-30 10:43:21
Writing application : mkvmerge v6.0.0 ('Coming Up For Air') built on Jan 20 2013 09:52:00
Writing library : libebml v1.3.0 + libmatroska v1.4.0
Video
ID : 1
Format : AVC
Format/Info : Advanced Video Codec
Format profile : High@L4.1
Format settings, CABAC : Yes
Format settings, ReFrames : 16 frames
Codec ID : V_MPEG4/ISO/AVC
Duration : 1h 37mn
Bit rate mode : Variable
Bit rate : 1 697 Kbps
Maximum bit rate : 50.0 Mbps
Width : 960 pixels
Height : 512 pixels
Display aspect ratio : 1.85:1
Frame rate mode : Constant
Frame rate : 23.976 fps
Color space : YUV
Chroma subsampling : 4:2:0
Bit depth : 8 bits
Scan type : Progressive
Bits/(Pixel*Frame) : 0.144
Stream size : 1.12 GiB (77%)
Title : by Perevodman
Writing library : x264 core 129 r2230 1cffe9f
Encoding settings : cabac=1 / ref=16 / deblock=1:-3:-3 / analyse=0x3:0x133 / me=umh / subme=10 / psy=1 / psy_rd=1.00:0.00 / mixed_ref=1 / me_range=32 / chroma_me=1 / trellis=2 / 8x8dct=1 / cqm=0 / deadzone=21,11 / fast_pskip=0 / chroma_qp_offset=-2 / threads=6 / lookahead_threads=1 / sliced_threads=0 / nr=0 / decimate=0 / interlaced=0 / bluray_compat=0 / constrained_intra=0 / bframes=16 / b_pyramid=2 / b_adapt=2 / b_bias=0 / direct=3 / weightb=1 / open_gop=0 / weightp=2 / keyint=240 / keyint_min=23 / scenecut=40 / intra_refresh=0 / rc_lookahead=60 / rc=2pass / mbtree=1 / bitrate=1697 / ratetol=1.0 / qcomp=0.60 / qpmin=10 / qpmax=51 / qpstep=4 / cplxblur=20.0 / qblur=0.5 / vbv_maxrate=50000 / vbv_bufsize=62500 / nal_hrd=vbr / ip_ratio=1.40 / aq=1:1.00
Language : English
Default : Yes
Forced : No
Audio
ID : 2
Format : AC-3
Format/Info : Audio Coding 3
Mode extension : CM (complete main)
Format settings, Endianness : Big
Codec ID : A_AC3
Duration : 1h 37mn
Bit rate mode : Constant
Bit rate : 448 Kbps
Channel(s) : 6 channels
Channel positions : Front: L C R, Side: L R, LFE
Sampling rate : 48.0 KHz
Bit depth : 16 bits
Compression mode : Lossy
Stream size : 311 MiB (21%)
Title : AVO kyberpunk
Language : Russian
Default : Yes
Forced : No




.....The.Breakfast.Club.(..John.Hughes).[1985..BDRip-AVC].[VO].(kyberpunk).torrent
  ! ! 
:   [ : ] c?
MAGNET
MAGNET


.torrent

15 KB

: DHT
: - 112 , - 2
: 1,46 GB
- (: 0)
: 1
:
 FacebookTwitterLivejournal Liveinternet
 

 
: