Loading...
Error

Скачать Танго и Кэш / Tango & Cash (Андрей Кончаловский, Альберт Магноли) [1989, боевик, комедия, BDRip-AVC] [Dub]x2+[MVO]x2+[AVO]x4+[DVO]+[Sub] торрент без регистрации

 
Статистика раздачи
Размер:  4,56 GB   |    Скачан:  106 раз
Сидов:  1  [  0 KB/s  ]  
 
Автор Сообщение

Marsianka

[] 

Информация о фильме
Название: Танго и Кэш
Оригинальное название: Tango & Cash
Год выхода: 1989
Жанр: боевик, комедия
Режиссер: Андрей Кончаловский, Альберт Магноли
В ролях: Сильвестр Сталлоне, Курт Рассел, Тери Хэтчер, Джек Пэланс, Брайон Джеймс, Джеймс Хонг, Марк Алаймо, Филип Тан, Майкл Дж. Поллард, Роберт ЗДар, Льюис Аркетт, Эдвард Банкер, Лесли Моррис, Рой Броксмит, Сьюзан Кребс, Дэвид Бирд, Ричард Фэнси, Джерри Мартинез, Майкл Джитер, Бинг Расселл, Альфонсе Уолтер, Питер Стенслэнд, Фил Рубенштейн, Элизабет Санг, Клинт Ховард

О фильме:
Рэй Танго и Гэйб Кэш двое полицейских из отдела по борьбе с наркотиками Лос-Анджелеса. Они работают в разных участках и, по натуре наделённые совершенно разными характерами, постоянно соперничают друг с другом. Они оба охотятся за крупным международным преступником Ивом Перре и в связи с этим волей-неволей становятся напарниками. Перре смертельно надоела эта парочка и он подставляет их, подбросив труп и подстроив им причастность к убийству. Танго и Кэш арестованы. Для того, чтобы остановить Перре и восстановить своё доброе имя, они вынуждены организовать побег из тюрьмы



Страна: США
Студия: Warner Bros. Pictures, Guber-Peters Company
Продолжительность: 01:43:46
Перевод: Дублированный, профессиональный (многоголосый закадровый), авторский (одноголосый закадровый)

Файл
Кодек: h.264
Качество: BDRip-AVC
Видео: MPEG-4 AVC, 3128 Кбит/с, 1024x432, 23.976 кадр/с
1: Русский (АС3, 6 ch, 384 Кбит/с) Дублированный [Мост-Видео]
2: Русский (АС3, 2 ch, 192 Кбит/с) Дублированный [Варус-Видео]
3: Русский (АС3, 2 ch, 192 Кбит/с) Профессиональный многоголосый [НТВ]
4: Русский (АС3, 2 ch, 192 Кбит/с) Профессиональный многоголосый [REN-TV]
5: Русский (АС3, 6 ch, 384 Кбит/с) Авторский одноголосый [Андрей Гаврилов]
6: Русский (АС3, 6 ch, 384 Кбит/с) Авторский одноголосый [Василий Горчаков]
7: Русский (АС3, 6 ch, 384 Кбит/с) Авторский одноголосый [Вартан Дохалов]
8: Русский (АС3, 6 ch, 384 Кбит/с) Авторский одноголосый [Григорий Либергал]
9: Украинский (АС3, 2 ch, 192 Кбит/с) Профессиональный двухголосый
10: Английский (АС3, 6 ch, 384 Кбит/с)

Субтитры: Руссские, английские

Полное имя : Tango.i.Kesh.1989.x264.BDRip.(AVC).0ptimus.mkv
Формат : Matroska
Версия формата : Version 4 / Version 2
Размер файла : 4,56 Гбайт
Продолжительность : 1 ч. 43 м.
Общий поток : 6285 Кбит/сек
Название фильма : Танго и Кэш / Tango & Cash [1989] -=BDRip (AVC) by 0ptimus=-
Дата кодирования : UTC 2013-01-29 11:43:39
Программа кодирования : mkvmerge v6.0.0 ('Coming Up For Air') built on Jan 20 2013 09:52:00
Библиотека кодирования : libebml v1.3.0 + libmatroska v1.4.0

Видео
Идентификатор : 1
Формат : AVC
Формат/Информация : Advanced Video Codec
Профиль формата : High@L4.1
Параметр CABAC формата : Да
Параметр ReFrames формата : 9 кадров
Идентификатор кодека : V_MPEG4/ISO/AVC
Продолжительность : 1 ч. 43 м.
Битрейт : 3218 Кбит/сек
Ширина : 1024 пикселя
Высота : 432 пикселя
Соотношение сторон : 2,40:1
Режим частоты кадров : Постоянный
Частота кадров : 23,976 кадра/сек
Цветовое пространство : YUV
Субдискретизация насыщенности : 4:2:0
Битовая глубина : 8 бит
Тип развёртки : Прогрессивная
Бит/(Пиксели*Кадры) : 0.303
Размер потока : 2,24 Гбайт (49%)
Заголовок : by 0ptimus
Библиотека кодирования : x264 core 129 r2245 bc13772
Настройки программы : cabac=1 / ref=9 / deblock=1:-3:-3 / analyse=0x3:0x113 / me=umh / subme=11 / psy=1 / psy_rd=1.00:0.20 / mixed_ref=1 / me_range=32 / chroma_me=1 / trellis=2 / 8x8dct=1 / cqm=0 / deadzone=21,11 / fast_pskip=0 / chroma_qp_offset=-3 / threads=4 / lookahead_threads=1 / sliced_threads=0 / nr=0 / decimate=0 / interlaced=0 / bluray_compat=0 / constrained_intra=0 / bframes=14 / b_pyramid=2 / b_adapt=2 / b_bias=0 / direct=3 / weightb=1 / open_gop=0 / weightp=2 / keyint=240 / keyint_min=23 / scenecut=40 / intra_refresh=0 / rc_lookahead=40 / rc=2pass / mbtree=0 / bitrate=3218 / ratetol=1.0 / qcomp=0.60 / qpmin=0 / qpmax=69 / qpstep=4 / cplxblur=20.0 / qblur=0.5 / vbv_maxrate=50000 / vbv_bufsize=50000 / nal_hrd=none / ip_ratio=1.40 / pb_ratio=1.30 / aq=1:1.00
Язык : English
Default : Да
Forced : Да

Аудио #1
Идентификатор : 2
Формат : AC-3
Формат/Информация : Audio Coding 3
Расширение режима : CM (complete main)
Параметр Endianness формата : Big
Идентификатор кодека : A_AC3
Продолжительность : 1 ч. 43 м.
Вид битрейта : Постоянный
Битрейт : 384 Кбит/сек
Каналы : 6 каналов
Расположение каналов : Front: L C R, Side: L R, LFE
Частота : 48,0 КГц
Битовая глубина : 16 бит
Метод сжатия : С потерями
Размер потока : 285 Мбайт (6%)
Заголовок : Дублированный [Мост-Видео]
Язык : Russian
Default : Да
Forced : Да

Аудио #2
Идентификатор : 3
Формат : AC-3
Формат/Информация : Audio Coding 3
Расширение режима : CM (complete main)
Параметр Endianness формата : Big
Идентификатор кодека : A_AC3
Продолжительность : 1 ч. 43 м.
Вид битрейта : Постоянный
Битрейт : 192 Кбит/сек
Каналы : 2 канала
Расположение каналов : Front: L R
Частота : 48,0 КГц
Битовая глубина : 16 бит
Метод сжатия : С потерями
Размер потока : 143 Мбайт (3%)
Заголовок : Дублированный [Варус-Видео]
Язык : Russian
Default : Нет
Forced : Нет

Аудио #3
Идентификатор : 4
Формат : AC-3
Формат/Информация : Audio Coding 3
Расширение режима : CM (complete main)
Параметр Endianness формата : Big
Идентификатор кодека : A_AC3
Продолжительность : 1 ч. 43 м.
Вид битрейта : Постоянный
Битрейт : 192 Кбит/сек
Каналы : 2 канала
Расположение каналов : Front: L R
Частота : 48,0 КГц
Битовая глубина : 16 бит
Метод сжатия : С потерями
Размер потока : 143 Мбайт (3%)
Заголовок : Многоголосый
Язык : Russian
Default : Нет
Forced : Нет

Аудио #4
Идентификатор : 5
Формат : AC-3
Формат/Информация : Audio Coding 3
Расширение режима : CM (complete main)
Параметр Endianness формата : Big
Идентификатор кодека : A_AC3
Продолжительность : 1 ч. 43 м.
Вид битрейта : Постоянный
Битрейт : 192 Кбит/сек
Каналы : 2 канала
Расположение каналов : Front: L R
Частота : 48,0 КГц
Битовая глубина : 16 бит
Метод сжатия : С потерями
Размер потока : 143 Мбайт (3%)
Заголовок : Многоголосый [РЕН-ТВ]
Язык : Russian
Default : Нет
Forced : Нет

Аудио #5
Идентификатор : 6
Формат : AC-3
Формат/Информация : Audio Coding 3
Расширение режима : CM (complete main)
Параметр Endianness формата : Big
Идентификатор кодека : A_AC3
Продолжительность : 1 ч. 43 м.
Вид битрейта : Постоянный
Битрейт : 384 Кбит/сек
Каналы : 6 каналов
Расположение каналов : Front: L C R, Side: L R, LFE
Частота : 48,0 КГц
Битовая глубина : 16 бит
Метод сжатия : С потерями
Размер потока : 285 Мбайт (6%)
Заголовок : Авторский [Андрей Гаврилов]
Язык : Russian
Default : Нет
Forced : Нет

Аудио #6
Идентификатор : 7
Формат : AC-3
Формат/Информация : Audio Coding 3
Расширение режима : CM (complete main)
Параметр Endianness формата : Big
Идентификатор кодека : A_AC3
Продолжительность : 1 ч. 43 м.
Вид битрейта : Постоянный
Битрейт : 384 Кбит/сек
Каналы : 6 каналов
Расположение каналов : Front: L C R, Side: L R, LFE
Частота : 48,0 КГц
Битовая глубина : 16 бит
Метод сжатия : С потерями
Размер потока : 285 Мбайт (6%)
Заголовок : Авторский [Василий Горчаков]
Язык : Russian
Default : Нет
Forced : Нет

Аудио #7
Идентификатор : 8
Формат : AC-3
Формат/Информация : Audio Coding 3
Расширение режима : CM (complete main)
Параметр Endianness формата : Big
Идентификатор кодека : A_AC3
Продолжительность : 1 ч. 43 м.
Вид битрейта : Постоянный
Битрейт : 384 Кбит/сек
Каналы : 6 каналов
Расположение каналов : Front: L C R, Side: L R, LFE
Частота : 48,0 КГц
Битовая глубина : 16 бит
Метод сжатия : С потерями
Размер потока : 285 Мбайт (6%)
Заголовок : Авторский [Вартан Дохалов]
Язык : Russian
Default : Нет
Forced : Нет

Аудио #8
Идентификатор : 9
Формат : AC-3
Формат/Информация : Audio Coding 3
Расширение режима : CM (complete main)
Параметр Endianness формата : Big
Идентификатор кодека : A_AC3
Продолжительность : 1 ч. 43 м.
Вид битрейта : Постоянный
Битрейт : 384 Кбит/сек
Каналы : 6 каналов
Расположение каналов : Front: L C R, Side: L R, LFE
Частота : 48,0 КГц
Битовая глубина : 16 бит
Метод сжатия : С потерями
Размер потока : 285 Мбайт (6%)
Заголовок : Авторский [Григорий Либергал]
Язык : Russian
Default : Нет
Forced : Нет

Аудио #9
Идентификатор : 10
Формат : AC-3
Формат/Информация : Audio Coding 3
Расширение режима : CM (complete main)
Параметр Endianness формата : Big
Идентификатор кодека : A_AC3
Продолжительность : 1 ч. 43 м.
Вид битрейта : Постоянный
Битрейт : 192 Кбит/сек
Каналы : 2 канала
Расположение каналов : Front: L R
Частота : 48,0 КГц
Битовая глубина : 16 бит
Метод сжатия : С потерями
Размер потока : 143 Мбайт (3%)
Заголовок : Двухголосый
Язык : Ukrainian
Default : Нет
Forced : Нет

Аудио #10
Идентификатор : 11
Формат : AC-3
Формат/Информация : Audio Coding 3
Расширение режима : CM (complete main)
Параметр Endianness формата : Big
Идентификатор кодека : A_AC3
Продолжительность : 1 ч. 43 м.
Вид битрейта : Постоянный
Битрейт : 384 Кбит/сек
Каналы : 6 каналов
Расположение каналов : Front: L C R, Side: L R, LFE
Частота : 48,0 КГц
Битовая глубина : 16 бит
Метод сжатия : С потерями
Размер потока : 285 Мбайт (6%)
Язык : English
Default : Нет
Forced : Нет

Текст #1
Идентификатор : 12
Формат : UTF-8
Идентификатор кодека : S_TEXT/UTF8
Идентификатор кодека/Информация : UTF-8 Plain Text
Язык : Russian
Default : Нет
Forced : Нет

Текст #2
Идентификатор : 13
Формат : UTF-8
Идентификатор кодека : S_TEXT/UTF8
Идентификатор кодека/Информация : UTF-8 Plain Text
Язык : English
Default : Нет
Forced : Нет

Меню
00:00:00.000 : :Tango Goes Trucking
00:05:07.849 : :Cash's Unexpected Company
00:08:50.821 : :Brotherly Concern
00:10:55.946 : :English 101
00:13:57.711 : :A Mouse Trap
00:17:33.135 : :The Setup
00:23:08.220 : :Evidence; on Trial
00:25:49.756 : :Making a Statement
00:30:26.866 : :Shower Repartee
00:33:43.146 : :Welcoming Parade
00:35:00.014 : :Bunkmates
00:36:40.281 : :A Jailed Cop's Nightmare
00:41:49.131 : :Shocking Treatment
00:43:55.883 : :An Escape Plan
00:47:40.107 : :Busting Out
00:53:39.591 : :High-Wire Act
00:57:29.487 : :High-Tech with Owen
00:59:59.971 : :Goodbye, Wyler
01:01:41.030 : :Sounding Out Skinner
01:03:43.736 : :The Cleopatra Club
01:07:34.091 : :His Feminine Side
01:08:53.879 : :Tangling at Tango's
01:15:46.375 : :Rooftop Roughhouse with Requin
01:17:42.991 : :Bad Cop, Worse Cop
01:20:02.839 : :The Rv From Hell
01:21:51.781 : :Stakeout
01:23:56.448 : :Crashing Perret's Compound
01:28:39.647 : :Perret's Inner Sanctum
01:32:22.453 : :Requin on a Rampage
01:35:14.166 : :Done in By Mirrors
01:37:09.865 : :"You Guys Work Well Together"/End Credits

x264 [info]: frame I:1120 Avg QP:16.99 size: 65579
x264 [info]: frame P:31827 Avg QP:19.52 size: 29584
x264 [info]: frame B:116331 Avg QP:21.14 size: 12787

Мост-Видео: Д.Матвеев, Л.Белозорович, Е.Борзунова, Б.Быстров, Е.Астафьева, В.Куприянов, В.Баранов, М.Лебедев, О.Куценко, В.Ратченко

Варус-Видео: Д.Матвеев, Л.Белозорович, Л.Ильена, В.Маландин, В.Петров, И.Акулова, А.Булдаков, Ю.Саранцев, В.Канафонтов, А.Вдовин, О.Голубицкий, В.Конкин, Ю.Моляров

НТВ: Л.Гнилова, Б.Миронов, А.Ярославцев
Релиз от: 0ptimus



Скачать Танго.и.Кэш.Tango.&.Cash.(Андрей.Кончаловский.Альберт.Магноли).[1989.боевик.комедия.BDRip-AVC].[Dub]x2+[MVO]x2+[AVO]x4+[DVO]+[Sub].torrent без регистрации
Золото ЗОЛОТАЯ РАЗДАЧА! СКАЧАННОЕ НЕ ЗАСЧИТЫВАЕТСЯ! Золото
Дата: Зарегистрирован   [ Тип: внутренний ] Как тут cкачать?
MAGNET ссылка
MAGNET ссылка


Скачать .torrent

12 KB

Статус: проверено DHT
Скачан: торрент - 106 раз, раздача полностью - 3 раз
Размер: 4,56 GB
Оценка:  - (Голосов: 0)
Поблагодарили: 0
Поделиться ссылкой на эту раздачу с друзьями:
В контактеFacebookОдноклассникиTwitterLivejournalМой МирLiveinternet
 

 
Показать сообщения:    


Вы не можете начинать темы
Вы не можете отвечать на сообщения
Вы не можете редактировать свои сообщения
Вы не можете удалять свои сообщения
Вы не можете голосовать в опросах
Вы не можете прикреплять файлы к сообщениям
Вы можете скачивать файлы