Loading...
Error

Скачать Путь дракона / Meng long guo jiang / The Way of the Dragon (Брюс Ли) [1972, боевик, триллер, драма, комедия, криминал, HDRip] [MVO] торрент без регистрации

 
Статистика раздачи
Размер:  744 MB   |    Скачан:  126 раз
Сидов:  1  [  0 KB/s  ]  
 
Автор Сообщение

Marsianka

[] 

Информация о фильме
Название: Путь дракона
Оригинальное название: Meng long guo jiang / The Way of the Dragon
Год выхода: 1972
Жанр: боевик, триллер, драма, комедия, криминал
Режиссер: Брюс Ли / Bruce Lee
В ролях: Брюс Ли, Нора Миао, Чак Норрис, Вэй Пинао, Роберт Уолл, Ван Инсик, Тони Лю, Юникорн Чан, Мализа Лонго, Чун Синь Хуан, Фу Чинг Чен, Чин Ти, Роберт Чен, Джон Т. Бенн, Роберт Бейкер, Риккардо Билли, Расселл Коуторн, Франц Коланджели, Джон Дербишир, Александр Гранд, Джим Джеймс, Чинг-Йинг Лам, Джузеппе Марокку, Андре Э. Морган, Андерс Нельсон, Юэнь Бяо

О фильме:
Тан приезжает из Гонконга в Рим, чтобы помочь друзьям семьи, чей ресторан задумали отобрать местные мафиози. Привыкшие всегда получать то, что захотят и не останавливаться ни перед чем, бандиты совершили большую ошибку, недооценив с виду скромного молодого человека.
Не сумев справиться с ним своими силами, мафиози нанимают лучших европейских и японских мастеров боевых искусств, но Тан с легкостью побеждает всех. И тогда против него на арену древнего Колизея выходит «крутой и смертоносный» американец Колт.



Страна: Гонконг
Продолжительность: 01:38:40
Перевод: Профессиональный (многоголосый закадровый) Superbit

Файл
Кодек: DivX
Качество: HDRip
Видео: 640x272 (2.35:1), 23.976 fps, 917 Kbps, 0.22 Bits/(Pixel*Frame)
Звук: MP3, 48 KHz, 128 Kbps, 2 channels

Семпл
General
Complete name : D:Put'.drakona.1972.HDRip.XviD.744mb.avi
Format : AVI
Format/Info : Audio Video Interleave
File size : 744 MiB
Duration : 1h 38mn
Overall bit rate : 1 055 Kbps
Writing application : VirtualDubMod 1.5.10.2 (build 2540/release)
Writing library : VirtualDubMod build 2540/release

Video
ID : 0
Format : MPEG-4 Visual
Format profile : AdvancedSimple@L5
Format settings, BVOP : Yes
Format settings, QPel : No
Format settings, GMC : No warppoints
Format settings, Matrix : Custom
Codec ID : DX50
Codec ID/Hint : DivX 5
Duration : 1h 38mn
Bit rate : 917 Kbps
Width : 640 pixels
Height : 272 pixels
Display aspect ratio : 2.35:1
Frame rate : 23.976 fps
Resolution : 24 bits
Colorimetry : 4:2:0
Scan type : Progressive
Bits/(Pixel*Frame) : 0.220
Stream size : 648 MiB (87%)
Writing library : XviD 1.2.1 (UTC 2008-12-04)

Audio
ID : 1
Format : MPEG Audio
Format version : Version 1
Format profile : Layer 3
Format_Settings_Mode : Joint stereo / MS Stereo
Codec ID : 55
Codec ID/Hint : MP3
Duration : 1h 38mn
Bit rate mode : Constant
Bit rate : 128 Kbps
Channel(s) : 2 channels
Sampling rate : 48.0 KHz
Resolution : 16 bits
Stream size : 90.3 MiB (12%)
Alignment : Aligned on interleaves
Interleave, duration : 42 ms (1.00 video frame)
Interleave, preload duration : 504 ms











Скачать Путь.дракона.Meng.long.guo.jiang.The.Way.of.the.Dragon.(Брюс.Ли).[1972.боевик.триллер.драма.комедия.криминал.HDRip].[MVO].torrent без регистрации
Золото ЗОЛОТАЯ РАЗДАЧА! СКАЧАННОЕ НЕ ЗАСЧИТЫВАЕТСЯ! Золото
Дата: Зарегистрирован   [ Тип: внутренний ] Как тут cкачать?
MAGNET ссылка
MAGNET ссылка


Скачать .torrent

15 KB

Статус: проверено DHT
Скачан: торрент - 126 раз, раздача полностью - 23 раз
Размер: 744 MB
Оценка:  - (Голосов: 0)
Поблагодарили: 0
Поделиться ссылкой на эту раздачу с друзьями:
В контактеFacebookОдноклассникиTwitterLivejournalМой МирLiveinternet
 

 
Показать сообщения:    


Вы не можете начинать темы
Вы не можете отвечать на сообщения
Вы не можете редактировать свои сообщения
Вы не можете удалять свои сообщения
Вы не можете голосовать в опросах
Вы не можете прикреплять файлы к сообщениям
Вы можете скачивать файлы