Loading...
Error

Скачать Последователи / The Following (Сезон 1, серии 01-12 из 15) (Маркос Сига / Marcos Siega) [2013 г., триллер, WEB-DLRip] [MVO] (NewStudio & МЕКС ИНФО) + [Original (Eng)] + [Rus (Мекс), Eng Subs] торрент без регистрации

 
Статистика раздачи
Размер:  7,08 GB   |    Скачан:  229 раз
Сидов:  1  [  0 KB/s  ]  
 
Автор Сообщение

leon030982

[] 

Последователи / The Following


Год выпуска: 2013
Страна: США
Канал: FOX
Жанр: триллер, драма, криминал
Продолжительность: ~00:45:00
Русские субтитры: есть (Мекс)
Английские субтитры: есть
Перевод: профессиональный (многоголосый, закадровый) [NewStudio & МЕКС ИНФО]

Режиссер: Маркос Сига (Marcos Siega), Джошуа Батлер (Joshua Butler)

В ролях: Кевин Бейкон, Джеймс Пьюрфой, Шон Эшмор, Кайл Кэтлетт, Натали Зиа, Энни Пэррис, Нико Торторелла, Грег Пол, Ли Джан Ли и другие

Описание: Главный антигерой - Джо Кэрол, бывший профессор колледжа, который преподавал работы Эдгара По и параллельно убивал молодых женщин во славу романтизма, пока не был пойман. С того момента он провел множество часов за компьютером в тюремной библиотеке, создавая социальную сеть из убийц-подражателей, которые исполняют любую его команду. Сериал начинается с того момента, когда Кэрол спасается от смертной казни с помощью своих последователей, и ФБР, в свою очередь, приглашает Райана Харди, который схватил Джо в первый раз, для консультирования в деле его поимки.

Sample
Качество: WEB-DLRip
Формат: AVI
Видео кодек: XviD
Аудио кодек: MP3
Видео: 720x400, 23.976 fps, XviD, ~1500 kbps avg, 0.215 bit/pixel
Аудио (русский): 48 kHz, MP3 Stereo, 2/0 (L,R) ch, ~192.00 kbps avg
Аудио (английский): 48 kHz, MP3 Stereo, 2/0 (L,R) ch, ~192.00 kbps avg

Информация о релизе:
Релиз: NewStudio & МЕКС ИНФО при поддержке SEASONVAR & JAGUAR
Озвучка: Анна Тух, Константин Погодаев, Кирилл Туранский и Александр Дасевич
Перевод: Мекс
Работа с видео: Мекс
Работа со звуком: koss
General
Complete name : G:\Torrents\Последователи (1 сезон, NewStudio & MEKC INFO)\The.Following.s01e01.WEBDLRip_NewStudio.TV.avi
Format : AVI
Format/Info : Audio Video Interleave
File size : 622 MiB
Duration : 45mn 48s
Overall bit rate : 1 898 Kbps
Writing application : VirtualDubMod 1.5.10.2 (build 2540/release)
Writing library : VirtualDubMod build 2540/release
Video
ID : 0
Format : MPEG-4 Visual
Format profile : Advanced Simple@L5
Format settings, BVOP : 1
Format settings, QPel : No
Format settings, GMC : No warppoints
Format settings, Matrix : Default (MPEG)
Codec ID : XVID
Codec ID/Hint : XviD
Duration : 45mn 48s
Bit rate : 1 500 Kbps
Width : 720 pixels
Height : 400 pixels
Display aspect ratio : 16:9
Frame rate : 23.976 fps
Color space : YUV
Chroma subsampling : 4:2:0
Bit depth : 8 bits
Scan type : Progressive
Compression mode : Lossy
Bits/(Pixel*Frame) : 0.217
Stream size : 492 MiB (79%)
Writing library : XviD 1.2.1 (UTC 2008-12-04)
Audio #1
ID : 1
Format : MPEG Audio
Format version : Version 1
Format profile : Layer 3
Codec ID : 55
Codec ID/Hint : MP3
Duration : 45mn 48s
Bit rate mode : Constant
Bit rate : 192 Kbps
Channel(s) : 2 channels
Sampling rate : 48.0 KHz
Compression mode : Lossy
Stream size : 62.9 MiB (10%)
Alignment : Aligned on interleaves
Interleave, duration : 42 ms (1.00 video frame)
Interleave, preload duration : 504 ms
Writing library : LAME3.99r
Encoding settings : -m s -V 4 -q 2 -lowpass 18.6 -b 192
Audio #2
ID : 2
Format : MPEG Audio
Format version : Version 1
Format profile : Layer 3
Codec ID : 55
Codec ID/Hint : MP3
Duration : 45mn 48s
Bit rate mode : Constant
Bit rate : 192 Kbps
Channel(s) : 2 channels
Sampling rate : 48.0 KHz
Compression mode : Lossy
Stream size : 62.9 MiB (10%)
Alignment : Aligned on interleaves
Interleave, duration : 42 ms (1.00 video frame)
Interleave, preload duration : 504 ms
Writing library : LAME3.99r
Encoding settings : -m s -V 4 -q 2 -lowpass 18.6 -b 192
При очередном добавлении новой серии, создаётся новый торрент. Для того, чтобы скачать новую серию сезона, Вам необходимо сделать следующее:
1. Удалить старый торрент (лишь торрент, серии удалять не нужно),
2. Скачать новый торрент-файл и запустить его. ОБЯЗАТЕЛЬНО при этом указать клиенту путь в старую папку, где уже находятся предыдущие серии.
3. Ваш клиент производит хеширование старой папки и будет докачивать только те серии и субтитры, которых у Вас ещё нет. Старые серии при этом не удаляются.



Скачать Последователи.The.Following.(Сезон.1.серии.01-12.из.15).(Маркос.Сига.Marcos.Siega).[2013.г.триллер.WEB-DLRip].[MVO].(NewStudio.&.МЕКС.ИНФО).+.[Original.(Eng)].+.[Rus.(Мекс).Eng.Subs].torrent без регистрации
Золото ЗОЛОТАЯ РАЗДАЧА! СКАЧАННОЕ НЕ ЗАСЧИТЫВАЕТСЯ! Золото
Дата: Зарегистрирован   [ Тип: внутренний ] Как тут cкачать?
MAGNET ссылка
MAGNET ссылка


Скачать .torrent

40 KB

Статус: проверено DHT
Скачан: торрент - 229 раз, раздача полностью - 3 раз
Размер: 7,08 GB
Оценка:  - (Голосов: 0)
Поблагодарили: 3
Поделиться ссылкой на эту раздачу с друзьями:
В контактеFacebookОдноклассникиTwitterLivejournalМой МирLiveinternet
 

 

leon030982

[] 

добавлена 6-я серия ab
 

leon030982

[] 

7-я серия az
 

leon030982

[] 

8-я серия az
 

leon030982

[] 

9-я серия az
 

leon030982

[] 

11-я серия az
 

leon030982

[] 

12-я серия az
 
Показать сообщения:    


Вы не можете начинать темы
Вы не можете отвечать на сообщения
Вы не можете редактировать свои сообщения
Вы не можете удалять свои сообщения
Вы не можете голосовать в опросах
Вы не можете прикреплять файлы к сообщениям
Вы можете скачивать файлы