Loading...
Error

Скачать Мертвая Зона / The Dead Zone (сезоны 01-06) [2002-2007, фантастика, драма, DVDRip] [MVO] торрент без регистрации

 
Статистика раздачи
Размер:  30,48 GB   |    Скачан:  317 раз
Сидов:  1  [  0 KB/s  ]  
 
Автор Сообщение

МихаНЕзатор

[] 

Мёртвая зона / The Dead Zone

Год выпуска: 2002-2007
Страна: США
Жанр: фантастика, драма
Серия: 80 из 80
Сезон: 1 - 6
Перевод: Профессиональный (многоголосый закадровый)
Субтитры: английский

Продолжительность: ~00: 42:00 мин x 13
Качество видео: DVDRip

Видеокодек: DivX 5
Битрейт видео: ~ 996 Кбит/сек
Размер кадра: 576x320
Аудио 1: MP3; 44,1 КГц; 96 Кбит/сек CBR; 2 канала (Многоголосый закадровый, профессиональный)
Аудио 2: MP3; 44,1 КГц; 128 Кбит/сек CBR; 2 канала (оригинал)

01. Пилот
02. Очевидные факты
03. Качество жизни
04. Загадка
05. Параллельный мир
06. Дом
07. Беспречинное сомнение
08. Осада
09. Враждебное сознание
10. Здесь обитают чудовища
11. Обед с Данной
12. Шаман
13. Судьба

Общее
Формат : AVI
Формат/Информация : Audio Video Interleave
Размер файла : 385 Мбайт
Продолжительность : 43 м.
Общий поток : 1234 Кбит/сек
Программа кодирования : VirtualDubMod 1.5.10.2 (build 2540/release)
Библиотека кодирования : VirtualDubMod build 2540/release

Видео
Идентификатор : 0
Формат : MPEG-4 Visual
Параметр BVOP формата : 1
Параметр QPel формата : Нет
Параметр GMC формата : Без точки перехода
Параметр матрицы формата : Default (H.263)
Режим смешивания : Сжатый битовый поток
Идентификатор кодека : DX50
Идентификатор кодека/Подсказка : DivX 5
Продолжительность : 43 м.
Битрейт : 996 Кбит/сек
Ширина : 576 пикселей
Высота : 320 пикселей
Соотношение сторон : 16:9
Частота кадров : 23,976 кадра/сек
Цветовое пространство : YUV
Субдискретизация насыщенности : 4:2:0
Битовая глубина : 8 бит
Тип развёртки : Прогрессивная
Метод сжатия : С потерями
Бит/(Пиксели*Кадры) : 0.225
Размер потока : 310 Мбайт (81%)
Библиотека кодирования : DivX 5.0.5 (UTC 2003-04-24)

Аудио #1
Идентификатор : 1
Формат : MPEG Audio
Версия формата : Version 1
Профиль формата : Layer 3
Идентификатор кодека : 55
Идентификатор кодека/Подсказка : MP3
Продолжительность : 43 м.
Вид битрейта : Постоянный
Битрейт : 96,0 Кбит/сек
Каналы : 2 канала
Частота : 44,1 КГц
Метод сжатия : С потерями
Размер потока : 29,9 Мбайт (8%)
Выравнивание : Разделение по промежуткам
Продолжительность промежутка : 42 мс. (1,00 видеокадр)
Время предзагрузки промежутка : 500 мс.

Аудио #2
Идентификатор : 2
Формат : MPEG Audio
Версия формата : Version 1
Профиль формата : Layer 3
Идентификатор кодека : 55
Идентификатор кодека/Подсказка : MP3
Продолжительность : 43 м.
Вид битрейта : Постоянный
Битрейт : 128 Кбит/сек
Каналы : 2 канала
Частота : 44,1 КГц
Метод сжатия : С потерями
Размер потока : 39,9 Мбайт (10%)
Выравнивание : Разделение по промежуткам
Продолжительность промежутка : 42 мс. (1,00 видеокадр)
Время предзагрузки промежутка : 500 мс.

Продолжительность: ~ 00:42:00 мин x 19
Качество видео: DVDRip

Видеокодек: XviD
Битрейт видео: ~ 959 Кбит/сек
Размер кадра: 640x368
Аудио 1: MP3; 48,0 КГц; 128 Кбит/сек CBR; 2 канала (Многоголосый закадровый, профессиональный)
Аудио 2: MP3; 44,1 КГц; 128 Кбит/сек CBR; 2 канала (оригинал)

01. Долина теней
02. Погружение
03. Восхождение
04. Аутсайдер
05. Побочный Эффект
06. Старые раны
07. Презренный
08. Давление в кабине
09. Человек, которого не было
10. История, рассказанная мертвецом
11. Игра в Бога
12. Зион
13. Ураган
14. Мор
15. Дежа Вуду
16. Охота
17. Гора
18. Комбинация
19. Видения

Общее
Формат : AVI
Формат/Информация : Audio Video Interleave
Размер файла : 380 Мбайт
Продолжительность : 43 м.
Общий поток : 1229 Кбит/сек
Программа кодирования : VirtualDubMod 1.5.10.2 (build 2540/release)
Библиотека кодирования : VirtualDubMod build 2540/release

Видео
Идентификатор : 0
Формат : MPEG-4 Visual
Профиль формата : Simple@L3
Параметр BVOP формата : Нет
Параметр QPel формата : Нет
Параметр GMC формата : Без точки перехода
Параметр матрицы формата : Default (H.263)
Идентификатор кодека : XVID
Идентификатор кодека/Подсказка : XviD
Продолжительность : 43 м.
Битрейт : 959 Кбит/сек
Ширина : 640 пикселей
Высота : 368 пикселей
Соотношение сторон : 1,739
Частота кадров : 23,976 кадра/сек
Цветовое пространство : YUV
Субдискретизация насыщенности : 4:2:0
Битовая глубина : 8 бит
Тип развёртки : Прогрессивная
Метод сжатия : С потерями
Бит/(Пиксели*Кадры) : 0.170
Размер потока : 296 Мбайт (78%)
Библиотека кодирования : XviD 0.0.12 (UTC 2003-06-11)

Аудио #1
Идентификатор : 1
Формат : MPEG Audio
Версия формата : Version 1
Профиль формата : Layer 3
Режим : Joint stereo
Идентификатор кодека : 55
Идентификатор кодека/Подсказка : MP3
Продолжительность : 43 м.
Вид битрейта : Постоянный
Битрейт : 128 Кбит/сек
Каналы : 2 канала
Частота : 48,0 КГц
Метод сжатия : С потерями
Размер потока : 39,6 Мбайт (10%)
Выравнивание : Соединение по промежуткам
Продолжительность промежутка : 42 мс. (1,00 видеокадр)
Время предзагрузки промежутка : 504 мс.

Аудио #2
Идентификатор : 2
Формат : MPEG Audio
Версия формата : Version 1
Профиль формата : Layer 3
Идентификатор кодека : 55
Идентификатор кодека/Подсказка : MP3
Продолжительность : 43 м.
Вид битрейта : Постоянный
Битрейт : 128 Кбит/сек
Каналы : 2 канала
Частота : 44,1 КГц
Метод сжатия : С потерями
Задержка видео : 1 с. 0 мс.
Размер потока : 39,6 Мбайт (10%)
Выравнивание : Разделение по промежуткам
Продолжительность промежутка : 42 мс. (1,00 видеокадр)

Продолжительность: ~ 42 мин x 12
Качество видео: DVDRip

Видеокодек: XviD
Битрейт видео: ~ 986 Кбит/сек
Размер кадра: 640x352
Аудио 1: MP3; 48,0 КГц; 128 Кбит/сек CBR; 2 канала (Многоголосый закадровый, профессиональный)
Аудио 2: MP3; 48,0 КГц; 160 Кбит/сек VBR; 2 канала (оригинал)

01. В поисках Рэйчел часть 1
02. В поисках Рэйчел часть 2
03. Столкновение
04. Жестокая правда
05. Мир под колпаком
06. Никаких вопросов
07. Зеркало
08. Расскажи все
09. Круг насилия
10. Инстинкт
11. Тени
12. Ключевой момент

Общее
Формат : AVI
Формат/Информация : Audio Video Interleave
Размер файла : 390 Мбайт
Продолжительность : 42 м.
Режим общего битрейта : Переменный
Общий поток : 1295 Кбит/сек
Программа кодирования : VirtualDubMod 1.5.10.2 (build 2542/release)
Библиотека кодирования : VirtualDubMod build 2542/release

Видео
Идентификатор : 0
Формат : MPEG-4 Visual
Профиль формата : Simple@L3
Параметр BVOP формата : 2
Параметр QPel формата : Нет
Параметр GMC формата : Без точки перехода
Параметр матрицы формата : Default (H.263)
Режим смешивания : Сжатый битовый поток
Идентификатор кодека : XVID
Идентификатор кодека/Подсказка : XviD
Продолжительность : 42 м.
Битрейт : 986 Кбит/сек
Ширина : 640 пикселей
Высота : 352 пикселя
Соотношение сторон : 16:9
Частота кадров : 23,976 кадра/сек
Цветовое пространство : YUV
Субдискретизация насыщенности : 4:2:0
Битовая глубина : 8 бит
Тип развёртки : Прогрессивная
Метод сжатия : С потерями
Бит/(Пиксели*Кадры) : 0.183
Размер потока : 297 Мбайт (76%)
Библиотека кодирования : XviD 1.1.0 Beta2 (UTC 2005-04-04)

Аудио #1
Идентификатор : 1
Формат : MPEG Audio
Версия формата : Version 1
Профиль формата : Layer 3
Режим : Joint stereo
Расширение режима : MS Stereo
Идентификатор кодека : 55
Идентификатор кодека/Подсказка : MP3
Продолжительность : 42 м.
Вид битрейта : Постоянный
Битрейт : 128 Кбит/сек
Каналы : 2 канала
Частота : 48,0 КГц
Метод сжатия : С потерями
Размер потока : 38,5 Мбайт (10%)
Выравнивание : Соединение по промежуткам
Продолжительность промежутка : 42 мс. (1,00 видеокадр)
Время предзагрузки промежутка : 504 мс.

Аудио #2
Идентификатор : 2
Формат : MPEG Audio
Версия формата : Version 1
Профиль формата : Layer 3
Режим : Joint stereo
Расширение режима : MS Stereo
Идентификатор кодека : 55
Идентификатор кодека/Подсказка : MP3
Продолжительность : 42 м.
Вид битрейта : Переменный
Битрейт : 160 Кбит/сек
Каналы : 2 канала
Частота : 48,0 КГц
Метод сжатия : С потерями
Размер потока : 49,4 Мбайт (13%)
Выравнивание : Соединение по промежуткам
Продолжительность промежутка : 24 мс. (0,58 видеокадр)
Время предзагрузки промежутка : 350 мс.
Библиотека кодирования : LAME3.96r
Настройки программы : -m j -V 4 -q 3 -lowpass 18 --abr 160

Продолжительность: ~ 42 мин x 12
Качество видео: DVDRip

Видеокодек: XviD
Битрейт видео: ~ 972 Кбит/сек
Размер кадра: 656x352
Аудио 1: MP3; 48,0 КГц; 128 Кбит/сек CBR; 2 канала (Многоголосый закадровый, профессиональный)
Аудио 2: MP3; 48,0 КГц; 128 Кбит/сек VBR; 2 канала (оригинал)

01. Разорванный круг
02. Коллекционер
03. Двойное видение
04. Натюрморт
05. Герои и демоны
06. Последнее прощание
07. Песчинки
08. Авангард
09. Предсказание
10. Возвращение домой
11. Спасенный
12. Странное рождество

Общее
Формат : AVI
Формат/Информация : Audio Video Interleave
Размер файла : 391 Мбайт
Продолжительность : 42 м.
Режим общего битрейта : Переменный
Общий поток : 1273 Кбит/сек
Программа кодирования : VirtualDubMod 1.5.10.2 (build 2542/release)
Библиотека кодирования : VirtualDubMod build 2542/release

Видео
Идентификатор : 0
Формат : MPEG-4 Visual
Профиль формата : Advanced Simple@L5
Параметр BVOP формата : 1
Параметр QPel формата : Нет
Параметр GMC формата : Без точки перехода
Параметр матрицы формата : Default (MPEG)
Режим смешивания : Сжатый битовый поток
Идентификатор кодека : XVID
Идентификатор кодека/Подсказка : XviD
Продолжительность : 42 м.
Битрейт : 972 Кбит/сек
Ширина : 656 пикселей
Высота : 352 пикселя
Соотношение сторон : 1,85:1
Частота кадров : 23,976 кадра/сек
Цветовое пространство : YUV
Субдискретизация насыщенности : 4:2:0
Битовая глубина : 8 бит
Тип развёртки : Прогрессивная
Метод сжатия : С потерями
Бит/(Пиксели*Кадры) : 0.176
Размер потока : 298 Мбайт (76%)
Библиотека кодирования : XviD 1.1.0 (UTC 2005-11-22)

Аудио #1
Идентификатор : 1
Формат : MPEG Audio
Версия формата : Version 1
Профиль формата : Layer 3
Режим : Joint stereo
Расширение режима : MS Stereo
Идентификатор кодека : 55
Идентификатор кодека/Подсказка : MP3
Продолжительность : 42 м.
Вид битрейта : Постоянный
Битрейт : 128 Кбит/сек
Каналы : 2 канала
Частота : 48,0 КГц
Метод сжатия : С потерями
Размер потока : 39,3 Мбайт (10%)
Выравнивание : Соединение по промежуткам
Продолжительность промежутка : 42 мс. (1,00 видеокадр)
Время предзагрузки промежутка : 504 мс.

Аудио #2
Идентификатор : 2
Формат : MPEG Audio
Версия формата : Version 1
Профиль формата : Layer 3
Режим : Joint stereo
Расширение режима : MS Stereo
Идентификатор кодека : 55
Идентификатор кодека/Подсказка : MP3
Продолжительность : 42 м.
Вид битрейта : Переменный
Битрейт : 155 Кбит/сек
Минимальный битрейт : 128 Кбит/сек
Каналы : 2 канала
Частота : 48,0 КГц
Метод сжатия : С потерями
Размер потока : 47,7 Мбайт (12%)
Выравнивание : Соединение по промежуткам
Продолжительность промежутка : 24 мс. (0,58 видеокадр)
Время предзагрузки промежутка : 192 мс.
Библиотека кодирования : LAME3.97b
Настройки программы : -m j -V 2 -q 3 -lowpass 18.6 --vbr-new -b 128

Продолжительность: ~ 42 мин x 11
Качество видео: DVDRip

Видеокодек: XviD
Битрейт видео: ~ 1074 Кбит/сек
Размер кадра: 672x368
Аудио 1: MP3; 48,0 КГц; 128 Кбит/сек CBR; 2 канала (Многоголосый закадровый, профессиональный)
Аудио 2: MP3; 48,0 КГц; 137 Кбит/сек VBR; 2 канала (оригинал)

01. Запретный плод
02. День независимости
03. Паника
04. Символ веры
05. Свой среди чужих
06. Лотерейная лихорадка
07. Симметрия
08. Пучина
09. Откровение
10. В самом сердце темноты
11. Случай на охоте

Общее
Формат : AVI
Формат/Информация : Audio Video Interleave
Размер файла : 388 Мбайт
Продолжительность : 39 м.
Режим общего битрейта : Переменный
Общий поток : 1356 Кбит/сек
Программа кодирования : VirtualDubMod 1.5.10.2 (build 2540/release)
Библиотека кодирования : VirtualDubMod build 2540/release

Видео
Идентификатор : 0
Формат : MPEG-4 Visual
Профиль формата : Advanced Simple@L5
Параметр BVOP формата : 2
Параметр QPel формата : Нет
Параметр GMC формата : Без точки перехода
Параметр матрицы формата : Default (H.263)
Режим смешивания : Сжатый битовый поток
Идентификатор кодека : XVID
Идентификатор кодека/Подсказка : XviD
Продолжительность : 39 м.
Битрейт : 1074 Кбит/сек
Ширина : 672 пикселя
Высота : 368 пикселей
Соотношение сторон : 1,85:1
Частота кадров : 23,976 кадра/сек
Цветовое пространство : YUV
Субдискретизация насыщенности : 4:2:0
Битовая глубина : 8 бит
Тип развёртки : Прогрессивная
Метод сжатия : С потерями
Бит/(Пиксели*Кадры) : 0.181
Размер потока : 307 Мбайт (79%)
Библиотека кодирования : XviD 1.2.0.dev47 (UTC 2006-11-01)

Аудио #1
Идентификатор : 1
Формат : MPEG Audio
Версия формата : Version 1
Профиль формата : Layer 3
Режим : Joint stereo
Расширение режима : MS Stereo
Идентификатор кодека : 55
Идентификатор кодека/Подсказка : MP3
Продолжительность : 39 м.
Вид битрейта : Постоянный
Битрейт : 128 Кбит/сек
Каналы : 2 канала
Частота : 48,0 КГц
Метод сжатия : С потерями
Размер потока : 36,6 Мбайт (9%)
Выравнивание : Соединение по промежуткам
Продолжительность промежутка : 42 мс. (1,00 видеокадр)
Время предзагрузки промежутка : 504 мс.

Аудио #2
Идентификатор : 2
Формат : MPEG Audio
Версия формата : Version 1
Профиль формата : Layer 3
Режим : Joint stereo
Расширение режима : MS Stereo
Идентификатор кодека : 55
Идентификатор кодека/Подсказка : MP3
Продолжительность : 39 м.
Вид битрейта : Переменный
Битрейт : 137 Кбит/сек
Каналы : 2 канала
Частота : 48,0 КГц
Метод сжатия : С потерями
Размер потока : 39,2 Мбайт (10%)
Выравнивание : Соединение по промежуткам
Продолжительность промежутка : 24 мс. (0,58 видеокадр)
Время предзагрузки промежутка : 134 мс.
Библиотека кодирования : LAME3.93
Настройки программы : -m j -V 1 -q 2 -lowpass 19.5 --vbr-new

Продолжительность: ~ 42 мин x 13
Качество видео: DVDRip

Видеокодек: XviD
Битрейт видео: ~ 1045 Кбит/сек
Размер кадра: 624x352
Аудио 1: MP3; 48,0 КГц; 128 Кбит/сек CBR; 2 канала (Многоголосый закадровый, профессиональный)
Аудио 2: MP3; 48,0 КГц; 131 Кбит/сек VBR; 2 канала (оригинал)

01 Heritage/Наследие
02 Эго
03 Новый заход
04 Под куполом цирка
05 Ко всему прочему...
06 Перемены
07 Онемение
08 Выход
09 Правонарушение
10 Плыть по течению
11 Изгнание
12 Ловушка
13 Разгадка

Общее
Формат : AVI
Формат/Информация : Audio Video Interleave
Размер файла : 390 Мбайт
Продолжительность : 41 м.
Режим общего битрейта : Переменный
Общий поток : 1321 Кбит/сек
Программа кодирования : VirtualDubMod 1.6.0.0 SURROUND (build 2560/release)
Библиотека кодирования : VirtualDubMod build 2560/release

Видео
Идентификатор : 0
Формат : MPEG-4 Visual
Профиль формата : Advanced Simple@L5
Параметр BVOP формата : 2
Параметр QPel формата : Нет
Параметр GMC формата : Без точки перехода
Параметр матрицы формата : Default (H.263)
Режим смешивания : Сжатый битовый поток
Идентификатор кодека : XVID
Идентификатор кодека/Подсказка : XviD
Продолжительность : 41 м.
Битрейт : 1045 Кбит/сек
Ширина : 624 пикселя
Высота : 352 пикселя
Соотношение сторон : 16:9
Частота кадров : 23,976 кадра/сек
Цветовое пространство : YUV
Субдискретизация насыщенности : 4:2:0
Битовая глубина : 8 бит
Тип развёртки : Прогрессивная
Метод сжатия : С потерями
Бит/(Пиксели*Кадры) : 0.198
Размер потока : 308 Мбайт (79%)
Библиотека кодирования : XviD 1.2.0SMP (UTC 2006-01-08)

Аудио #1
Идентификатор : 1
Формат : MPEG Audio
Версия формата : Version 1
Профиль формата : Layer 3
Режим : Joint stereo
Расширение режима : MS Stereo
Идентификатор кодека : 55
Идентификатор кодека/Подсказка : MP3
Продолжительность : 41 м.
Вид битрейта : Постоянный
Битрейт : 128 Кбит/сек
Каналы : 2 канала
Частота : 48,0 КГц
Метод сжатия : С потерями
Размер потока : 37,8 Мбайт (10%)
Выравнивание : Соединение по промежуткам
Продолжительность промежутка : 42 мс. (1,00 видеокадр)
Время предзагрузки промежутка : 504 мс.

Аудио #2
Идентификатор : 2
Формат : MPEG Audio
Версия формата : Version 1
Профиль формата : Layer 3
Режим : Joint stereo
Расширение режима : MS Stereo
Идентификатор кодека : 55
Идентификатор кодека/Подсказка : MP3
Продолжительность : 41 м.
Вид битрейта : Переменный
Битрейт : 131 Кбит/сек
Каналы : 2 канала
Частота : 48,0 КГц
Метод сжатия : С потерями
Задержка видео : 8 мс.
Размер потока : 38,5 Мбайт (10%)
Выравнивание : Соединение по промежуткам
Продолжительность промежутка : 24 мс. (0,58 видеокадр)
Время предзагрузки промежутка : 393 мс.

Довольно сложно писать рецензию на этот сериал. Я большой фанат творчества С. Кинга и в свое время прочел первоисточник. Это произведение сразу стало одним из любимых. История про Джона, простого учителя, который попал в аварию и на 6 лет в кому, была интересной прежде всего тем, что судьба необъяснима. Стивен Кинг давал нам персонажа, который не очень-то был рад своим новопреобретенным способностям. Вся бесконечная суета из-за его дара была неприемлима герою. И конец книги получился таким, каким он должен быть

В свое время я ознакомился с экранизацией с Кристофером Уокеном. Честно, вышло не ахти, довольно несвязно, многое изменили, тем, кто читал книгу это явно не понравилось.

И вот как-то вечерком, мучаясь от скуки, я взялся за просмотр сериала «Мертвая зона», не ожидая чего-то сверх от него. Первые же минуты поразили проработкой деталей относительно первоисточника. Первые 2 серии буквально дословно по книге. Далее, конечно, идет осебятина. Но сценаристы не зря едят свой хлеб, многие серии получились интересней, чем в книге у Кинга. Например, серия про ограбление банка или про старую любовь в период войны одного ветерана. С одной стороны авторы слегка изменили характер главного героя, сделали его более отзывчивым, что пошло на пользу.

Все персонажи перекочевали из оригинала. Уже с конца первого сезона начинает развиваться сюжетная линия про Стилсона. И, если честно, зря. На мой взгляд, это в сериале не самое интересное, но нужное для завершения всего сериала. Концовка не совсем по книге, просто авторы не могли избавиться от Джонни, он вышел немного другим, и у него был выход, в отличие от Джона Смита Стивена Кинга.

Сериал рекомендуется к просмотру всем любителям С. Кинга и не только. Манера съемки просто шикарная, спецэффекты видений выше всяких похвал. Персонажи очень чётко сыграны актерами, в них веришь. Веришь в каждый эпизод, который представляет собой собственную историю.

Каждая серия смотрится как фильм, порой захватывающий, порой интригующий, иногда пугающий, а иногда становится весело вместе с персонажами.

От сериала решительно не оторваться, в день я просматривал по 57 серий, когда была возможность.

9,5 из 10, один из лучших сериалов.

Полбалла снимаются за финал последнего сезона, к сожалению, сериал еле досняли, мегабомба в начале оказалась не нужна телевидению под конец, и сериал остался практически брошенным. Печально, господа.



Скачать Мертвая.Зона.The.Dead.Zone.(сезоны.01-06).[2002-2007.фантастика.драма.DVDRip].[MVO].torrent без регистрации
Золото ЗОЛОТАЯ РАЗДАЧА! СКАЧАННОЕ НЕ ЗАСЧИТЫВАЕТСЯ! Золото
Дата: Зарегистрирован   [ Тип: внутренний ] Как тут cкачать?
MAGNET ссылка
MAGNET ссылка


Скачать .torrent

86 KB

Статус: проверено DHT
Скачан: торрент - 317 раз, раздача полностью - 238 раз
Размер: 30,48 GB
Оценка:  - (Голосов: 0)
Поблагодарили: 3
Поделиться ссылкой на эту раздачу с друзьями:
В контактеFacebookОдноклассникиTwitterLivejournalМой МирLiveinternet
 

 
Показать сообщения:    


Вы не можете начинать темы
Вы не можете отвечать на сообщения
Вы не можете редактировать свои сообщения
Вы не можете удалять свои сообщения
Вы не можете голосовать в опросах
Вы не можете прикреплять файлы к сообщениям
Вы можете скачивать файлы